***Уважаемые пользователи и гости !!! Сайт переехал на новый домен Torrents-club.info. Просьба изменить ваши закладки! ***
 
[ Сегодня идет свободное скачивание без начисления Download ]


Статистика раздачи
Нет
 
   
 
 
 
Проклятие Аннабель 3 / Annabelle Comes Home Информация о фильме
Название: Проклятие Аннабель 3
Оригинальное название: Annabelle Comes Home
Год выхода: 2019
Жанр: ужасы, триллер, детектив
Режиссер: Гари Доберман
В ролях: Маккенна Грейс, Мэдисон Айсмен, Кэти Сариф, Майкл Чимино, Вера Фармига, Патрик Уилсон, Самара Ли, Кензи Каплан, Шаде Катарина, Майкл Патрик Макгилл
О фильме:
Преисполнившись решимости удержать Аннабель от дальнейших разрушений и хаоса, демонологи Эд и Лоррейн Уоррены приносят одержимую куклу в запертую комнату артефактов в своем доме, поместив ее под «надежное» освященное стекло и заручившись благословением священника. Однако беспросветная ночь ужаса ждет обитателей дома, когда Аннабель пробуждает злых духов комнаты и их новой мишенью становится десятилетняя дочь Уорренов Джуди и ее друзья.

Страна: США
Студия: Atomic Monster, New Line Cinema, RatPac-Dune Entertainment, The Safran Company
Продолжительность: 101 мин. / 01:41
Перевод: профессиональный (дублированный) лицензия
Файл
Кодек: MPEG2
Качество: DVD9 R2
Видео: PAL 16:9 (720x576@1024x576) VBR 6691 Kbps, 25.000 fps
Аудио 1: Dolby AC3, 6 ch, 48.0 KHz, 384 Kbps (русский)
Аудио 2: Dolby AC3, 6 ch, 48.0 KHz, 384 Kbps (английский)
Аудио 3: Dolby AC3, 6 ch, 48.0 KHz, 448 Kbps (английский описательный)
Аудио 4: Dolby AC3, 6 ch, 48.0 KHz, 384 Kbps (испанский)
Аудио 5: Dolby AC3, 6 ch, 48.0 KHz, 384 Kbps (хинди)
Субтитры: русские, английские, испанские, датские, эстонские, финские, греческие, латышские, литовские, норвежские, шведские

MediaInfo

Общее
Полное имя : Annabelle Comes Home (2019) DVD9 R2VIDEO_TSVTS_01_4.VOB
Формат : MPEG-PS
Размер файла : 1024 Мбайт
Продолжительность : 16 м. 10 с.
Режим общего битрейта : Переменный
Общий поток : 8851 Кбит/сек
Видео
Идентификатор : 224 (0xE0)
Формат : MPEG Video
Версия формата : Version 2
Профиль формата : Main@Main
Настройки формата : CustomMatrix / BVOP
Параметр BVOP формата : Да
Параметр матрицы формата : Выборочная
Параметр GOP формата : Variable
Продолжительность : 16 м. 10 с.
Вид битрейта : Переменный
Битрейт : 6691 Кбит/сек
Максимальный битрейт : 9800 Кбит/сек
Ширина : 720 пикселей
Высота : 576 пикселей
Соотношение сторон : 16:9
Частота кадров : 25,000 кадров/сек
Стандарт вещания : PAL
Цветовое пространство : YUV
Субдискретизация насыщенности : 4:2:0
Битовая глубина : 8 бит
Тип развёртки : Прогрессивная
Порядок развёртки : Верхнее поле первое
Метод сжатия : С потерями
Бит/(Пиксели*Кадры) : 0.645
Временной код первого кадра : 01:50:32:16
Оригинал временного кода : Group of pictures header
Размер потока : 774 Мбайт (76%)
Аудио #1
Идентификатор : 189 (0xBD)-128 (0x80)
Формат : AC-3
Формат/Информация : Audio Coding 3
Коммерческое название : Dolby Digital
Режим смешивания : DVD-Video
Продолжительность : 16 м. 10 с.
Вид битрейта : Постоянный
Битрейт : 384 Кбит/сек
Каналы : 6 каналов
Channel layout : L R C LFE Ls Rs
Частота : 48,0 КГц
Частота кадров : 31,250 кадров/сек (1536 SPF)
Битовая глубина : 16 бит
Метод сжатия : С потерями
Задержка видео : -512 мс.
Размер потока : 44,4 Мбайт (4%)
Аудио #2
Идентификатор : 189 (0xBD)-129 (0x81)
Формат : AC-3
Формат/Информация : Audio Coding 3
Коммерческое название : Dolby Digital
Режим смешивания : DVD-Video
Продолжительность : 16 м. 10 с.
Вид битрейта : Постоянный
Битрейт : 448 Кбит/сек
Каналы : 6 каналов
Channel layout : L R C LFE Ls Rs
Частота : 48,0 КГц
Частота кадров : 31,250 кадров/сек (1536 SPF)
Битовая глубина : 16 бит
Метод сжатия : С потерями
Задержка видео : -544 мс.
Размер потока : 51,8 Мбайт (5%)
Аудио #3
Идентификатор : 189 (0xBD)-130 (0x82)
Формат : AC-3
Формат/Информация : Audio Coding 3
Коммерческое название : Dolby Digital
Режим смешивания : DVD-Video
Продолжительность : 16 м. 10 с.
Вид битрейта : Постоянный
Битрейт : 384 Кбит/сек
Каналы : 6 каналов
Channel layout : L R C LFE Ls Rs
Частота : 48,0 КГц
Частота кадров : 31,250 кадров/сек (1536 SPF)
Битовая глубина : 16 бит
Метод сжатия : С потерями
Задержка видео : -512 мс.
Размер потока : 44,4 Мбайт (4%)
Аудио #4
Идентификатор : 189 (0xBD)-131 (0x83)
Формат : AC-3
Формат/Информация : Audio Coding 3
Коммерческое название : Dolby Digital
Режим смешивания : DVD-Video
Продолжительность : 16 м. 10 с.
Вид битрейта : Постоянный
Битрейт : 384 Кбит/сек
Каналы : 6 каналов
Channel layout : L R C LFE Ls Rs
Частота : 48,0 КГц
Частота кадров : 31,250 кадров/сек (1536 SPF)
Битовая глубина : 16 бит
Метод сжатия : С потерями
Задержка видео : -512 мс.
Размер потока : 44,4 Мбайт (4%)
Аудио #5
Идентификатор : 189 (0xBD)-132 (0x84)
Формат : AC-3
Формат/Информация : Audio Coding 3
Коммерческое название : Dolby Digital
Режим смешивания : DVD-Video
Продолжительность : 16 м. 10 с.
Вид битрейта : Постоянный
Битрейт : 384 Кбит/сек
Каналы : 6 каналов
Channel layout : L R C LFE Ls Rs
Частота : 48,0 КГц
Частота кадров : 31,250 кадров/сек (1536 SPF)
Битовая глубина : 16 бит
Метод сжатия : С потерями
Задержка видео : -512 мс.
Размер потока : 44,4 Мбайт (4%)
Текст #1
Идентификатор : 189 (0xBD)-32 (0x20)
Формат : RLE
Формат/Информация : Run-length encoding
Режим смешивания : DVD-Video
Продолжительность : 16 м. 5 с.
Задержка видео : 1 с. 80 мс.
Текст #2
Идентификатор : 189 (0xBD)-33 (0x21)
Формат : RLE
Формат/Информация : Run-length encoding
Режим смешивания : DVD-Video
Продолжительность : 16 м. 6 с.
Задержка видео : 1 с. 40 мс.
Текст #3
Идентификатор : 189 (0xBD)-34 (0x22)
Формат : RLE
Формат/Информация : Run-length encoding
Режим смешивания : DVD-Video
Продолжительность : 16 м. 6 с.
Задержка видео : 1 с. 80 мс.
Текст #4
Идентификатор : 189 (0xBD)-35 (0x23)
Формат : RLE
Формат/Информация : Run-length encoding
Режим смешивания : DVD-Video
Продолжительность : 16 м. 6 с.
Задержка видео : 1 с. 80 мс.
Текст #5
Идентификатор : 189 (0xBD)-36 (0x24)
Формат : RLE
Формат/Информация : Run-length encoding
Режим смешивания : DVD-Video
Продолжительность : 16 м. 6 с.
Задержка видео : 1 с. 80 мс.
Текст #6
Идентификатор : 189 (0xBD)-37 (0x25)
Формат : RLE
Формат/Информация : Run-length encoding
Режим смешивания : DVD-Video
Продолжительность : 16 м. 6 с.
Задержка видео : 1 с. 80 мс.
Текст #7
Идентификатор : 189 (0xBD)-38 (0x26)
Формат : RLE
Формат/Информация : Run-length encoding
Режим смешивания : DVD-Video
Продолжительность : 16 м. 6 с.
Задержка видео : 1 с. 80 мс.
Текст #8
Идентификатор : 189 (0xBD)-39 (0x27)
Формат : RLE
Формат/Информация : Run-length encoding
Режим смешивания : DVD-Video
Продолжительность : 16 м. 6 с.
Задержка видео : 1 с. 80 мс.
Текст #9
Идентификатор : 189 (0xBD)-40 (0x28)
Формат : RLE
Формат/Информация : Run-length encoding
Режим смешивания : DVD-Video
Продолжительность : 16 м. 6 с.
Задержка видео : 1 с. 80 мс.
Текст #10
Идентификатор : 189 (0xBD)-41 (0x29)
Формат : RLE
Формат/Информация : Run-length encoding
Режим смешивания : DVD-Video
Продолжительность : 16 м. 6 с.
Задержка видео : 1 с. 80 мс.
Текст #11
Идентификатор : 189 (0xBD)-42 (0x2A)
Формат : RLE
Формат/Информация : Run-length encoding
Режим смешивания : DVD-Video
Продолжительность : 16 м. 6 с.
Задержка видео : 1 с. 80 мс.
Меню

Скриншоты


[Цитировать]



Показать сообщения:    

Текущее время: 19-Сен 01:58

Часовой пояс: UTC + 6


Вы не можете начинать темы
Вы не можете отвечать на сообщения
Вы не можете редактировать свои сообщения
Вы не можете удалять свои сообщения
Вы не можете голосовать в опросах
Вы не можете прикреплять файлы к сообщениям
Вы не можете скачивать файлы

!ВНИМАНИЕ!
Сайт не предоставляет электронные версии произведений, а занимается лишь коллекционированием и каталогизацией ссылок, присылаемых и публикуемых на форуме нашими читателями. Если вы являетесь правообладателем какого-либо представленного материала и не желаете, чтобы ссылка на него находилась в нашем каталоге, свяжитесь с нами, и мы незамедлительно удалим ее. Файлы для обмена на трекере предоставлены пользователями сайта, и администрация не несет ответственности за их содержание. Просьба не заливать файлы, защищенные авторскими правами, а также файлы нелегального содержания!