***Уважаемые пользователи и гости !!! Сайт переехал на новый домен Torrents-club.info. Просьба изменить ваши закладки! ***
 
[ Сегодня идет свободное скачивание без начисления Download ]


Статистика раздачи
Нет
 
   
 
 
 
Кремень (2007) DVD9 Информация о фильме
Название: Кремень
Год выхода: 2007
Жанр: Драма, Криминал
Режиссер: Алексей Мизгирёв
В ролях: Евгений Антропов, Дмитрий Куличков, Анастасия Безбородова, Татьяна Насташевская, Александр Голубев, Карэн Бадалов, Виктор Алферов, Алексей Агрызков, Александр Скотников, Сахат Дурсунов
О фильме:
Отслужив в армии, Антон Ремизов, паренек из провинциального российского городка Альметьевска, приезжает в Москву. Весь мир покорить Антон, быть может, пока еще не планирует, но в столице зацепиться не прочь. Например, за альметьевскую соседку Зину, отец которой открыл в Москве автомастерскую… Зина же дает Антону от ворот поворот, и тогда он находит взаимопонимание у сотрудников органов правопорядка. Так Антон Ремизов становится московским милиционером…

Страна: Россия
Студия: Кинокомпания CTB
Продолжительность: 01:22:02
Перевод: Не требуется (русский)
Файл
Кодек: MPEG-2
Качество: DVD9
Видео: PAL 16:9 (720 х 576), 6474 Кбит/сек, Частота кадров : 25,000 кадров/сек, Бит/(Пиксели*Кадры) : 0.624
Звук:
АУДИО 1: AC3 5.1, 448 Кбит/сек, русский
АУДИО 2: AC3 2.0, 192 Кбит/сек, русский
АУДИО 3: AC3 DTS, , 6 каналов, 1510 Кбит/сек, русский
Субтитры: отсутствуют

MI

Общее
Полное имя : F:КременьVIDEO_TSVTS_02_3.VOB
Формат : MPEG-PS
Размер файла : 1024 Мбайт
Продолжительность : 16 м.
Режим общего битрейта : Переменный
Общий поток : 8799 Кбит/сек
Видео
Идентификатор : 224 (0xE0)
Формат : MPEG Video
Версия формата : Version 2
Профиль формата : Main@Main
Параметр BVOP формата : Да
Параметр матрицы формата : Выборочная
Параметр GOP формата : M=2, N=12
Продолжительность : 16 м.
Вид битрейта : Переменный
Битрейт : 6474 Кбит/сек
Максимальный битрейт : 7500 Кбит/сек
Ширина : 720 пикселей
Высота : 576 пикселей
Соотношение сторон : 16:9
Частота кадров : 25,000 кадров/сек
Стандарт вещания : PAL
Цветовое пространство : YUV
Субдискретизация насыщенности : 4:2:0
Битовая глубина : 8 бит
Тип развёртки : Чересстрочная
Порядок развёртки : Нижнее поле первое
Метод сжатия : С потерями
Бит/(Пиксели*Кадры) : 0.624
Размер потока : 753 Мбайт (74%)
Аудио #1
Идентификатор : 189 (0xBD)-128 (0x80)
Формат : AC-3
Формат/Информация : Audio Coding 3
Расширение режима : CM (complete main)
Параметр Endianness формата : Big
Режим смешивания : DVD-Video
Продолжительность : 16 м.
Вид битрейта : Постоянный
Битрейт : 448 Кбит/сек
Каналы : 6 каналов
Расположение каналов : Front: L C R, Side: L R, LFE
Частота : 48,0 КГц
Битовая глубина : 16 бит
Метод сжатия : С потерями
Задержка видео : -336 мс.
Размер потока : 52,1 Мбайт (5%)
Аудио #2
Идентификатор : 189 (0xBD)-129 (0x81)
Формат : AC-3
Формат/Информация : Audio Coding 3
Расширение режима : CM (complete main)
Параметр Endianness формата : Big
Режим смешивания : DVD-Video
Продолжительность : 16 м.
Вид битрейта : Постоянный
Битрейт : 192 Кбит/сек
Каналы : 2 канала
Расположение каналов : Front: L R
Частота : 48,0 КГц
Битовая глубина : 16 бит
Метод сжатия : С потерями
Задержка видео : -240 мс.
Размер потока : 22,3 Мбайт (2%)
Аудио #3
Идентификатор : 189 (0xBD)-138 (0x8A)
Формат : DTS
Формат/Информация : Digital Theater Systems
Режим смешивания : DVD-Video
Продолжительность : 16 м.
Вид битрейта : Постоянный
Битрейт : 1510 Кбит/сек
Каналы : 6 каналов
Расположение каналов : Front: L C R, Side: L R, LFE
Частота : 48,0 КГц
Битовая глубина : 24 бит
Метод сжатия : С потерями
Задержка видео : -379 мс.
Размер потока : 176 Мбайт (17%)

Скриншоты

[Цитировать]



Показать сообщения:    

Текущее время: 26-Сен 01:10

Часовой пояс: UTC + 6


Вы не можете начинать темы
Вы не можете отвечать на сообщения
Вы не можете редактировать свои сообщения
Вы не можете удалять свои сообщения
Вы не можете голосовать в опросах
Вы не можете прикреплять файлы к сообщениям
Вы не можете скачивать файлы

!ВНИМАНИЕ!
Сайт не предоставляет электронные версии произведений, а занимается лишь коллекционированием и каталогизацией ссылок, присылаемых и публикуемых на форуме нашими читателями. Если вы являетесь правообладателем какого-либо представленного материала и не желаете, чтобы ссылка на него находилась в нашем каталоге, свяжитесь с нами, и мы незамедлительно удалим ее. Файлы для обмена на трекере предоставлены пользователями сайта, и администрация не несет ответственности за их содержание. Просьба не заливать файлы, защищенные авторскими правами, а также файлы нелегального содержания!