***Уважаемые пользователи и гости !!! Сайт переехал на новый домен Torrents-club.info. Просьба изменить ваши закладки! ***
 
[ Сегодня идет свободное скачивание без начисления Download ]


Статистика раздачи
Качаю: [ 1 ]
Скачал: [ 1 ]
 
   
 
 
 
 
Информация о фильме
Название: Ангелы Чарли
Оригинальное название: Charlie's Angels
Год выпуска: 2019
Жанр: Боевик, комедия, приключения
Режиссер: Элизабет Бэнкс
В ролях: Кристен Стюарт, Наоми Скотт, Элла Балинска, Сэм Клафлин, Ноа Сентинео, Элизабет Бэнкс, Джимон Хонсу, Патрик Стюарт, Луис Херардо Мендес, Джонатан Такер
О фильме:
Частное детективное агентство Таунсенд, возглавляемое таинственным Чарли, открывает свои офисы по всему миру, и теперь в разных уголках земного шара команды суперпрофессиональных Ангелов под началом Босли обеспечивают покой и безопасность своим клиентам.

Страна: США
Студия: Columbia Pictures, 2.0 Entertainment, Brownstone Productions
Продолжительность: 01:57:53
Перевод: Дублированный | Лицензия BD 4K EUR
Файл
Формат: AVI
Качество: BDRip
Источник: |Charlie's.Angels.2019.BDREMUX.1080p.seleZe|
Видео: 688x288 (2.39:1), 23.976 fps, XviD build 73 ~747 kbps avg, 0.16 bit/pixel
Звук: 48 kHz, MPEG Layer 3, 2 ch, ~128.00 kbps avg
Субтитры: Русские форсированные (отдельно)
Релиз от:

MediaInfo:

General
Complete name : D:\OlLanDGroup\Charlie's.Angels.2019.BDRip.745Mb.DUB.OlLanDGroup\Charlie's.Angels.2019.BDRip.745Mb.DUB.OlLanDGroup.avi
Format : AVI
Format/Info : Audio Video Interleave
File size : 746 MiB
Duration : 1 h 57 min
Overall bit rate : 885 kb/s
Movie name : Ангелы Чарли / Charlie's Angels (2019) BDRip #Skandar# OlLanDGroup
Writing application : VirtualDubMod 1.5.10.2 (build 2540/release)
Comment : #Skandar# OlLanDGroup
Video
ID : 0
Format : MPEG-4 Visual
Format profile : Advanced Simple@L5
Format settings : BVOP1
Format settings, BVOP : 1
Format settings, QPel : No
Format settings, GMC : No warppoints
Format settings, Matrix : Default (MPEG)
Codec ID : XVID
Codec ID/Hint : XviD
Duration : 1 h 57 min
Bit rate : 748 kb/s
Width : 688 pixels
Height : 288 pixels
Display aspect ratio : 2.40:1
Frame rate : 23.976 (24000/1001) FPS
Color space : YUV
Chroma subsampling : 4:2:0
Bit depth : 8 bits
Scan type : Progressive
Compression mode : Lossy
Bits/(Pixel*Frame) : 0.157
Stream size : 631 MiB (84%)
Writing library : XviD 73
Audio
ID : 1
Format : MPEG Audio
Format version : Version 1
Format profile : Layer 3
Codec ID : 55
Codec ID/Hint : MP3
Duration : 1 h 57 min
Bit rate mode : Constant
Bit rate : 128 kb/s
Channel(s) : 2 channels
Sampling rate : 48.0 kHz
Frame rate : 41.667 FPS (1152 SPF)
Compression mode : Lossy
Stream size : 108 MiB (14%)
Alignment : Aligned on interleaves
Interleave, duration : 42 ms (1.00 video frame)
Interleave, preload duration : 504 ms
Writing library : LAME3.99r
Encoding settings : -m s -V 4 -q 2 -lowpass 17 -b 128

Скриншоты


[Цитировать]



Показать сообщения:    

Текущее время: 07-Апр 23:25

Часовой пояс: UTC + 6


Вы не можете начинать темы
Вы не можете отвечать на сообщения
Вы не можете редактировать свои сообщения
Вы не можете удалять свои сообщения
Вы не можете голосовать в опросах
Вы не можете прикреплять файлы к сообщениям
Вы не можете скачивать файлы

!ВНИМАНИЕ!
Сайт не предоставляет электронные версии произведений, а занимается лишь коллекционированием и каталогизацией ссылок, присылаемых и публикуемых на форуме нашими читателями. Если вы являетесь правообладателем какого-либо представленного материала и не желаете, чтобы ссылка на него находилась в нашем каталоге, свяжитесь с нами, и мы незамедлительно удалим ее. Файлы для обмена на трекере предоставлены пользователями сайта, и администрация не несет ответственности за их содержание. Просьба не заливать файлы, защищенные авторскими правами, а также файлы нелегального содержания!