***Уважаемые пользователи и гости !!! Сайт переехал на новый домен Torrents-club.info. Просьба изменить ваши закладки! ***
 
[ Сегодня идет свободное скачивание без начисления Download ]


Статистика раздачи
Скачал: [ 1 ]
 
   
 
 
 
 
Информация о фильме
Название: Рождество на двоих
Оригинальное название: Last Christmas
Год выхода: 2019
Жанр: Драма, мелодрама, комедия
Режиссер: Пол Фиг
В ролях: Мэдисон Инголдсби, Эмма Томпсон, Борис Исакович, Люси Миллер, Эмилия Кларк, Макс Болдри, Маргарет Клуни, Джон-Люк Робертс, Мишель Йео, Билал Зафар, Генри Голдинг, Ребекка Рут, Лидия Леонард, Патти ЛюПон
О фильме:
Кейт работает в магазине рождественских товаров, злоупотребляет выпивкой и давно бросила переживать из-за собственной жизни. Но всё меняется после знакомства с милым и очаровательным Томом.

Страна: Великобритания, США
Студия: Calamity Films, Feigco Entertainment, Perfect World Pictures
Продолжительность: 01:42:49
Перевод: Дублированный | Лицензия BD EUR
Файл
Формат: AVI
Качество: BDRip
Источник: |Last.Christmas.2019.BDremux.TeamHD|
Видео: 704x352 (2.00:1), 23.976 fps, XviD build 73 ~876 kbps avg, 0.15 bit/pixel
Аудио: 48 kHz, MPEG Layer 3, 2 ch, ~128.00 kbps avg
Субтитры: Русские форсированные (отдельно)
Релиз от:

MediaInfo:

Format : AVI
Format/Info : Audio Video Interleave
File size : 746 MiB
Duration : 1 h 42 min
Overall bit rate : 1 014 kb/s
Movie name : Рождество на двоих / Last Christmas (2019) BDRip #Skandar# OlLanDGroup
Writing application : VirtualDubMod 1.5.10.3 | www.virtualdub-fr.org || (build 2550/release)
Comment : #Skandar# OlLanDGroup
Video
ID : 0
Format : MPEG-4 Visual
Format profile : Advanced Simple@L5
Format settings : BVOP1
Format settings, BVOP : 1
Format settings, QPel : No
Format settings, GMC : No warppoints
Format settings, Matrix : Default (MPEG)
Codec ID : XVID
Codec ID/Hint : XviD
Duration : 1 h 42 min
Bit rate : 877 kb/s
Width : 704 pixels
Height : 352 pixels
Display aspect ratio : 2.000
Frame rate : 23.976 (24000/1001) FPS
Color space : YUV
Chroma subsampling : 4:2:0
Bit depth : 8 bits
Scan type : Progressive
Compression mode : Lossy
Bits/(Pixel*Frame) : 0.148
Stream size : 645 MiB (86%)
Writing library : XviD 73
Audio
ID : 1
Format : MPEG Audio
Format version : Version 1
Format profile : Layer 3
Codec ID : 55
Codec ID/Hint : MP3
Duration : 1 h 42 min
Bit rate mode : Constant
Bit rate : 128 kb/s
Channel(s) : 2 channels
Sampling rate : 48.0 kHz
Frame rate : 41.667 FPS (1152 SPF)
Compression mode : Lossy
Stream size : 94.1 MiB (13%)
Alignment : Aligned on interleaves
Interleave, duration : 42 ms (1.00 video frame)
Interleave, preload duration : 504 ms
Writing library : LAME3.99r
Encoding settings : -m s -V 4 -q 2 -lowpass 17 -b 128

Скриншоты


[Цитировать]



Показать сообщения:    

Текущее время: 07-Апр 22:21

Часовой пояс: UTC + 6


Вы не можете начинать темы
Вы не можете отвечать на сообщения
Вы не можете редактировать свои сообщения
Вы не можете удалять свои сообщения
Вы не можете голосовать в опросах
Вы не можете прикреплять файлы к сообщениям
Вы не можете скачивать файлы

!ВНИМАНИЕ!
Сайт не предоставляет электронные версии произведений, а занимается лишь коллекционированием и каталогизацией ссылок, присылаемых и публикуемых на форуме нашими читателями. Если вы являетесь правообладателем какого-либо представленного материала и не желаете, чтобы ссылка на него находилась в нашем каталоге, свяжитесь с нами, и мы незамедлительно удалим ее. Файлы для обмена на трекере предоставлены пользователями сайта, и администрация не несет ответственности за их содержание. Просьба не заливать файлы, защищенные авторскими правами, а также файлы нелегального содержания!