***Уважаемые пользователи и гости !!! Сайт переехал на новый домен Torrents-club.info. Просьба изменить ваши закладки! ***
 
[ Сегодня идет свободное скачивание без начисления Download ]


Статистика раздачи
Скачал: [ 2 ]
 
   
 
 
 
 
Шторм [01-08 из 08] (2019) WEB-DLRip Информация о фильме
Оригинальное название: Шторм
Год выпуска: 2019
Жанр: Драма, детектив
Выпущено: Россия, «Start Studio», «Марс Медиа»
Режиссер: Борис Хлебников
В ролях: Александр Робак, Максим Лагашкин, Анна Михалкова, Анна Котова, Геннадий Смирнов, Михаил Брашинский, Илья Борисов, Дмитрий Лысенков, Александр Мосин, Дарья Жовнер, Сергей Уманов, Валерий Дьяченко, Мария Антонова (II), Егор Пчёлкин
О фильме: В центре сюжета – двое друзей, Юрий Осокин и Сергей Градов. Первый работает в убойном отделе полиции, второй – в отделе по борьбе с коррупцией. Чтобы спасти жену от смертельной болезни и найти деньги на дорогостоящую операцию, Градов идет на должностные преступления и пытается скрыть улики. Изворотливый ум и талант выстраивать сложные многоходовые схемы делают его практически неуловимым. Расследующий череду преступлений Осокин начинает догадываться, что к делу причастен Градов, хотя достаточных доказательств у него пока нет. Для Юрия становится делом чести изобличить своего друга.

Качество: WEB-DLRip
Видео: XviD build 73, 720x384 (1.85:1), 25.000 fps, ~ 1550 Kbps (~ 0.224 bit/pixel)
Аудио: 48.0 kHz, AC3, 2/0 ch, 192 kbps
Продолжительность: 8 х ~ 00:55:00
Перевод: Не требуется [Русский]
Cубтитры: нет

Скриншоты



MediaInfo

General
Complete name : D:RazdachiShtorm.2019.WEB-DLRip.GeneralFilmE01.Shtorm.avi
Format : AVI
Format/Info : Audio Video Interleave
File size : 767 MiB
Duration : 1 h 1 min
Overall bit rate : 1 752 kb/s
Writing application : VirtualDubMod 1.5.10.3 | www.virtualdub-fr.org || (build 2550/release)
Writing library : VirtualDubMod build 2550/release
Video
ID : 0
Format : MPEG-4 Visual
Format profile : Advanced Simple@L5
Format settings : BVOP1 / Custom Matrix
Format settings, BVOP : 1
Format settings, QPel : No
Format settings, GMC : No warppoints
Format settings, Matrix : Custom
Codec ID : XVID
Codec ID/Hint : XviD
Duration : 1 h 1 min
Bit rate : 1 550 kb/s
Width : 720 pixels
Height : 384 pixels
Display aspect ratio : 1.85:1
Frame rate : 25.000 FPS
Color space : YUV
Chroma subsampling : 4:2:0
Bit depth : 8 bits
Scan type : Progressive
Compression mode : Lossy
Bits/(Pixel*Frame) : 0.224
Stream size : 679 MiB (88%)
Writing library : XviD 73
Audio
ID : 1
Format : MPEG Audio
Format version : Version 1
Format profile : Layer 3
Codec ID : 55
Codec ID/Hint : MP3
Duration : 1 h 1 min
Bit rate mode : Constant
Bit rate : 192 kb/s
Channel(s) : 2 channels
Sampling rate : 48.0 kHz
Frame rate : 41.667 FPS (1152 SPF)
Compression mode : Lossy
Stream size : 84.1 MiB (11%)
Alignment : Aligned on interleaves
Interleave, duration : 40 ms (1.00 video frame)
Interleave, preload duratio : 504 ms
Writing library : LAME3.99r
Encoding settings : -m s -V 4 -q 2 -lowpass 18.6 -b 192

[Цитировать]



Показать сообщения:    

Текущее время: 07-Апр 23:40

Часовой пояс: UTC + 6


Вы не можете начинать темы
Вы не можете отвечать на сообщения
Вы не можете редактировать свои сообщения
Вы не можете удалять свои сообщения
Вы не можете голосовать в опросах
Вы не можете прикреплять файлы к сообщениям
Вы не можете скачивать файлы

!ВНИМАНИЕ!
Сайт не предоставляет электронные версии произведений, а занимается лишь коллекционированием и каталогизацией ссылок, присылаемых и публикуемых на форуме нашими читателями. Если вы являетесь правообладателем какого-либо представленного материала и не желаете, чтобы ссылка на него находилась в нашем каталоге, свяжитесь с нами, и мы незамедлительно удалим ее. Файлы для обмена на трекере предоставлены пользователями сайта, и администрация не несет ответственности за их содержание. Просьба не заливать файлы, защищенные авторскими правами, а также файлы нелегального содержания!