***Уважаемые пользователи и гости !!! Сайт переехал на новый домен Torrents-club.info. Просьба изменить ваши закладки! ***
 
[ Сегодня идет свободное скачивание без начисления Download ]


Статистика раздачи
Нет
 
   
 
 
 
 
Огнем и мечом / Gun x Sword [S01] (2005) BDRip Информация о фильме
Название: Огнем и мечом
Оригинальное название: Gun x Sword
Год выхода: 2005
Выпуск: с 5 июля 2005 по 27 декабря 2005
Трансляция: вторник в 01:30 [ночной сеанс] на TV Tokyo
Жанр: драма, меха, приключения, фантастика
Режиссер: Танигути Горо
Автор оригинала: Курата Хидэюки
В ролях: Таканори Хосино, Хоко Кувасима, Карен Страссман, Кирк Торнтон, Расселл Уэйт, Джонни Йонг Бош,Даррел Гилбо, Лайам О’Брайэн, Сигэру Сибуя, Джейсон Миллер
О фильме: В этом пародийном сериале была предпринята попытка скрестить вестерн, меха и роуд-муви. Но хотя обыгрывание штампов занимает значительную часть сюжета, а в результате получилась захватывающая история про поиски и месть, спасение человечества и свободу выбора. Действие происходит на планете «Бесконечная иллюзия»: здесь нашлось место шумным высокотехнологичным городам и маленьким деревушкам, сражающимся с бандами разбойников, подземным поселениям и роскошным приморским курортам. Особое внимание создатели «Огнём и мечом» уделили дизайну боевых роботов – Доспехов, самых разнообразных по внешнему виду, способностям и оружию. Не меньший интерес вызывает галерея пилотов и других персонажей: преступников и бизнесменов, учёных и воинов. Мужчина, управляющий самым сильным Доспехом – Ван. Его ведёт отчаяние. Девушка, ищущая похищенного брата – Венди, её ведёт надежда. Они путешествуют вместе, но их разделяет огромное расстояние. В пути им встречаются коварные друзья и благородные враги. Достигнут ли они своей цели?..

Страна: Япония
Студия: AIC ASTA
Продолжительность: 26 серий x ~ 00:25:00
Перевод: Профессиональный (дублированный) [MegaAnime] Лицензия
Возрастное ограничение: 16+
Файл
Кодек: XViD
Качество: BDRip [Исходник: Blu-Ray Disk's by antiBILLotic]
Формат видео: XViD / AVI
Видео: 720x400 (16:9), 23.976 fps, 1 549 kb/s (0.224 bit/pixel
Аудио №1: AC3, 48.0 kHz, 6 ch, 448 kb/s, CBR | | MegaAnime
Аудио №2: AC3, 48.0 kHz, 2 ch, 192 kb/s, CBR | | Japan (Оригинал)
Субтитры: Русские-

MediaInfo

Общее
Полное имя : [Deadmau- RAWS] Gun.X.Sword.2005.S01.Rus.Jap.BDRip.Deadmauvlad.Ep.01.avi
Формат : AVI
Формат/Информация : Audio Video Interleave
Размер файла : 384 Мбайт
Продолжительность : 24 м. 31 с.
Общий поток : 2191 Кбит/сек
Название фильма : [Deadmau- RAWS] Огнём.и.мечом.2005.S01.Rus.Jap.BDRip.Deadmauvlad.Серия.01
Режиссёр : Encoder by Deadmauvlad
Жанр : драма, меха, приключения
Программа кодирования : VirtualDubMod 1.5.10.3 | www.virtualdub-fr.org || (build 2550/release)
Формат оригинала/Имя : Аниме
Авторское право : Encoder by Deadmauvlad
Примечание : Encoder by Deadmauvlad
Видео
Идентификатор : 0
Формат : MPEG-4 Visual
Профиль формата : Advanced Simple@L5
Настройки формата : BVOP1 / Custom Matrix
Параметр BVOP формата : 1
Параметр QPel формата : Нет
Параметр GMC формата : Без точки перехода
Параметр матрицы формата : Выборочная
Идентификатор кодека : XVID
Идентификатор кодека/Подсказка : XviD
Продолжительность : 24 м. 31 с.
Битрейт : 1549 Кбит/сек
Ширина : 720 пикселей
Высота : 400 пикселей
Соотношение сторон : 16:9
Частота кадров : 23,976 (24000/1001) кадра/сек
Цветовое пространство : YUV
Субдискретизация насыщенности : 4:2:0
Битовая глубина : 8 бит
Тип развёртки : Прогрессивная
Метод сжатия : С потерями
Бит/(Пиксели*Кадры) : 0.224
Размер потока : 272 Мбайт (71%)
Библиотека кодирования : XviD 73
Аудио #1
Идентификатор : 1
Формат : AC-3
Формат/Информация : Audio Coding 3
Коммерческое название : Dolby Digital
Идентификатор кодека : 2000
Продолжительность : 23 м. 50 с.
Вид битрейта : Постоянный
Битрейт : 448 Кбит/сек
Каналы : 6 каналов
ChannelLayout : L R C LFE Ls Rs
Частота : 48,0 КГц
Частота кадров : 31,250 кадров/сек (1536 SPF)
Метод сжатия : С потерями
Размер потока : 76,4 Мбайт (20%)
Выравнивание : Разделение по промежуткам
Продолжительность промежутка : 43 мс. (1,03 видеокадр)
Время предзагрузки промежутка : 500 мс.
Аудио #2
Идентификатор : 2
Формат : AC-3
Формат/Информация : Audio Coding 3
Коммерческое название : Dolby Digital
Идентификатор кодека : 2000
Продолжительность : 24 м. 31 с.
Вид битрейта : Постоянный
Битрейт : 192 Кбит/сек
Каналы : 2 канала
ChannelLayout : L R
Частота : 48,0 КГц
Частота кадров : 31,250 кадров/сек (1536 SPF)
Метод сжатия : С потерями
Размер потока : 33,7 Мбайт (9%)
Выравнивание : Разделение по промежуткам
Продолжительность промежутка : 42 мс. (1,00 видеокадр)
Время предзагрузки промежутка : 500 мс.
-

Эпизоды:

01. Фрак, развевающийся на ветру
02. Странный поток
03. Герои былых времён
04. А дождь всё не прекращался
05. Телохранители Близнецов
06. Зажги во мне огонь
07. По ту сторону ненависти
08. Кровные узы
09. Кармэн возвращается домой
10. Спасибо тебе, Океан
11. Там, где живёт разлука
12. Рубикон
13. Мечты становятся явью
14. Стремительная Брауни
15. Новые Избранные
16. Искрение электрических фейерверков
17. Мчась к Неизвестной Координате
18. Вся надежда на Саудад
19. Конец надежды
20. Прекрасная Вселенная
21. Желание в Небе, Мир на Земле
22. Ради кого?
23. Всеобщая Песнь
24. Крах мечты
25. Возвращение Идиота и Доспеха
26. Финал
-

[Цитировать]



Показать сообщения:    

Текущее время: 24-Сен 00:08

Часовой пояс: UTC + 6


Вы не можете начинать темы
Вы не можете отвечать на сообщения
Вы не можете редактировать свои сообщения
Вы не можете удалять свои сообщения
Вы не можете голосовать в опросах
Вы не можете прикреплять файлы к сообщениям
Вы не можете скачивать файлы

!ВНИМАНИЕ!
Сайт не предоставляет электронные версии произведений, а занимается лишь коллекционированием и каталогизацией ссылок, присылаемых и публикуемых на форуме нашими читателями. Если вы являетесь правообладателем какого-либо представленного материала и не желаете, чтобы ссылка на него находилась в нашем каталоге, свяжитесь с нами, и мы незамедлительно удалим ее. Файлы для обмена на трекере предоставлены пользователями сайта, и администрация не несет ответственности за их содержание. Просьба не заливать файлы, защищенные авторскими правами, а также файлы нелегального содержания!