***Уважаемые пользователи и гости !!! Сайт переехал на новый домен Torrents-club.info. Просьба изменить ваши закладки! ***
 
[ Сегодня идет свободное скачивание без начисления Download ]


Статистика раздачи
 
   
 
 
 
Донбасс. Реалии / Донбас. Реалії (телеканал "Настоящее время")- Дата/Год выпуска: 2020
Страна: Украина
Жанр: информационная программа
Продолжительность: 10x27 мин.
Перевод: Не требуется
Русские субтитры: нет
Оригинальная аудиодорожка: русский
Телеканал: Спутниковый телеканал "Настоящее время" (Current Time TV) SD-Телепроект «Донбасс. Реалии» - эксклюзивные факты о Донбассе.
Жизнь группировок «ЛНР» и «ДНР», поставки оружия, досье на боевиков, российские кадровые военные, иностранные наемники, коррупционные схемы в серой зоне. Громкие расследования и неопровержимые доказательства участия России в войне на востоке Украины. Мы рассказываем то, о чем молчат другие.
качество: SATRip
формат: AVI
Видео: Xvid 720x400 (16:9) ~896kbps 25fps
Аудио: MP3 128kbps 48kHz 1ch

Список выпусков/серий

1. Выпуск от 2 января 2020 года.
2. Выпуск от 9 января 2020 года.
3. Выпуск от 23 января 2020 года.
4. Выпуск от 30 января 2020 года.
5. Выпуск от 6 февраля 2020 года.
6. Выпуск от 13 февраля 2020 года.
7. Выпуск от 20 февраля 2020 года.
8. Выпуск от 27 февраля 2020 года.
9. Выпуск от 5 марта 2020 года.
10. Выпуск от 19 марта 2020 года.

MediaInfo

General
Complete name : D:\Мои раздачи\Настоящее время\Донбас.Реалії (2020)\01. Донбас.Реалії (2020-01-02).avi
Format : AVI
Format/Info : Audio Video Interleave
File size : 199 MiB
Duration : 26 min 54 s
Overall bit rate : 1 032 kb/s
Video
ID : 0
Format : MPEG-4 Visual
Format profile : Advanced Simple@L5
Format settings : BVOP2
Format settings, BVOP : 2
Format settings, QPel : No
Format settings, GMC : No warppoints
Format settings, Matrix : Default (H.263)
Codec ID : XVID
Codec ID/Hint : XviD
Duration : 26 min 54 s
Bit rate : 894 kb/s
Width : 720 pixels
Height : 400 pixels
Display aspect ratio : 16:9
Frame rate : 25.000 FPS
Color space : YUV
Chroma subsampling : 4:2:0
Bit depth : 8 bits
Scan type : Progressive
Compression mode : Lossy
Bits/(Pixel*Frame) : 0.124
Stream size : 172 MiB (87%)
Writing library : XviD 67
Audio
ID : 1
Format : MPEG Audio
Format version : Version 1
Format profile : Layer 3
Codec ID : 55
Codec ID/Hint : MP3
Duration : 26 min 54 s
Bit rate mode : Constant
Bit rate : 128 kb/s
Channel(s) : 1 channel
Sampling rate : 48.0 kHz
Compression mode : Lossy
Stream size : 24.6 MiB (12%)
Alignment : Split accross interleaves
Interleave, duration : 40 ms (1.00 video frame)
Interleave, preload duratio : 500 ms

Скриншоты

[Цитировать]



Показать сообщения:    

Текущее время: 31-Мар 18:39

Часовой пояс: UTC + 6


Вы не можете начинать темы
Вы не можете отвечать на сообщения
Вы не можете редактировать свои сообщения
Вы не можете удалять свои сообщения
Вы не можете голосовать в опросах
Вы не можете прикреплять файлы к сообщениям
Вы не можете скачивать файлы

!ВНИМАНИЕ!
Сайт не предоставляет электронные версии произведений, а занимается лишь коллекционированием и каталогизацией ссылок, присылаемых и публикуемых на форуме нашими читателями. Если вы являетесь правообладателем какого-либо представленного материала и не желаете, чтобы ссылка на него находилась в нашем каталоге, свяжитесь с нами, и мы незамедлительно удалим ее. Файлы для обмена на трекере предоставлены пользователями сайта, и администрация не несет ответственности за их содержание. Просьба не заливать файлы, защищенные авторскими правами, а также файлы нелегального содержания!