***Уважаемые пользователи и гости !!! Сайт переехал на новый домен Torrents-club.info. Просьба изменить ваши закладки! ***
 
[ Сегодня идет свободное скачивание без начисления Download ]


Статистика раздачи
Нет
 
   
 
 
 
 
-Звёздные войны: Скайуокер. Восход
Star Wars: Episode IX - The Rise of Skywalker
«У каждого поколения есть легенда»
- Год выпуска: 2019
Страна: США (Lucasfilm Ltd., Walt Disney Pictures, Bad Robot)
Жанр: фантастика, фэнтези, боевик, приключения
Продолжительность: 02:21:53
Перевод: Профессиональный дублированный - iTunes
Режиссер: Джей Джей Абрамс / J.J. Abrams-Роли исполняли (дублировали):

Rey - Дэйзи Ридли (Василиса Ручимская)
Kylo Ren - Адам Драйвер (Александр Койгеров)
Leia Organa - Кэрри Фишер (Елена Дриацкая)
Luke Skywalker - Марк Хэмилл (Давид Бродский)
Finn - Джон Бойега (Иван Чабан)
Poe Dameron - Оскар Айзек (Александр Разбаш)
C-3PO - Энтони Дэниелс (Валерий Кухарешин)
Jannah - Наоми Аки (Виктория Зайцева)
General Hux - Донал Глисон (Андрей Лёвин)
Allegiant General Pryde - Ричард Э. Грант (Александр Аравушкин)
Maz Kanata - Лупита Нионго (Марина Гладкая)
Zorii Bliss - Кери Рассел (Анна Слынько)
Chewbacca - Йонас Суотамо
Rose Tico - Келли Мари Трэн (Ирина Чумантьева)
Palpatine - Иен Макдермид (Андрей Тенетко)
Lando Calrissian - Билли Ди Уильямс (Владимир Артемов)
Snap Wexley - Грег Гранберг
Babu Frik - Ширли Хендерсон
Lieutenant Connix - Билли Лурд
Han Solo - Харрисон Форд (Станислав Концевич)
-----------------------------------------------
Также роли озвучивали / дублировали:

Джей Джей Абрамс (D-O), Джеймс Эрл Джонс / Андрей Тенетко (Darth Vader), Энди Серкис (Snoke), Хейден Кристенсен / Андрей Зайцев (Anakin Skywalker), Сэмюэл Л. Джексон (Mace Windu), Юэн Макгрегор / Евгений Иванов (Obi Wan Kenobi), Фредди Принц мл. (Kannan Jarus), Лиам Нисон (Qui-Gon Jinn)
-Описание: Фильм завершает невероятную историю семьи Скайуокеров, длящуюся уже более сорока лет, и обещает дать ответы на все загадки из предыдущих серий. Зрителя ожидают старые и новые герои, уникальные миры, увлекательные путешествия на край Галактики и грандиозный финал фантастической саги.-Доп. инфо: Главы проименованы по-английски.
Лицензионной русской дороги наверняка не будет.

Знаете ли вы, что...

Первый фильм серии, снятый на 65-миллиметровую плёнку.
Изначально режиссёром картины должен был стать Колин Треворроу, однако из-за творческих разногласий со студией он покинул пост режиссёра, оставшись сценаристом, а его место занял Джей Джей Абрамс, уже работавший вместе с LucasFilm над седьмым эпизодом саги — «Звёздные Войны: Пробуждение силы».
Рабочее название Эпизода IX — Black Diamond («Чёрный бриллиант»).
В картине использованы материалы с участием Кэрри Фишер, снятые для фильма «Звёздные войны: Пробуждение силы».
Премьера: 16 декабря 2019 (19 декабря 2019)
Кассовые сборы: $1 074 144 248
-Качество: BDRip (by Ash61)
Контейнер: MKV
Формат 3D: Half OverUnder / Вертикальная анаморфная стереопара
Порядок ракурсов: левый ракурс первый-Видео: AVC / 1920х1080p / 23,976 fps / 13.0 Mbps
Аудио:
#1 - Русский / AC3 / 48 KHz / 5.1 ch / 384 Kbps (Дубляж - iTunes)
#2 - Украинский / AC3 / 48 KHz / 5.1 ch / 640 Kbps (Дубляж) (спасибо Hurtom!)
#3 - Английский / AC3 / 48 KHz / 5.1 ch / 640 Kbps (Original - BD UHD)
Субтитры (SRT):
Вшитые (softsub):
#1 - Русские Форсированные (включены по умолчанию)
#2 - Русские Полные
#3 - Русские SDH
#4 - Украинские Форсированные
#5 - English Full
#6 - English SDH
Внешние (UTF-8):
#1 - Русские Форсированные (включены по умолчанию)
#2 - Русские SDH
#3 - Украинские Форсированные

MediaInfo

General
Unique ID : 240632393553382896593929883551639709979 (0xB5081CFCDD447DFF8A08F14F6E9AA91B)
Complete name : D:StarWars9(2019)3D-hOU(Ash61)iTunesStarWars9(2019)3D-hOU(Ash61)iTunes.mkv
Format : Matroska
Format version : Version 2
File size : 14.5 GiB
Duration : 2 h 21 min
Overall bit rate : 14.7 Mb/s
Movie name : Звёздные войны: Скайуокер. Восход / Star Wars: Episode IX - The Rise of Skywalker (2019) in 3D
Encoded date : UTC 2020-04-23 00:44:37
Writing application : mkvmerge v5.8.0 ('No Sleep / Pillow') built on Sep 2 2012 15:37:04
Writing library : libebml v1.2.3 + libmatroska v1.3.0
Video
ID : 1
Format : AVC
Format/Info : Advanced Video Codec
Format profile : High@L4.1
Format settings : CABAC / 4 Ref Frames
Format settings, CABAC : Yes
Format settings, Reference : 4 frames
Codec ID : V_MPEG4/ISO/AVC
Duration : 2 h 21 min
Bit rate : 13.0 Mb/s
Width : 1 920 pixels
Height : 1 080 pixels
Display aspect ratio : 16:9
Frame rate mode : Constant
Frame rate : 23.976 (24000/1001) FPS
Color space : YUV
Chroma subsampling : 4:2:0
Bit depth : 8 bits
Scan type : Progressive
Bits/(Pixel*Frame) : 0.261
Stream size : 12.6 GiB (87%)
Title : BDRip by Ash61
Writing library : x264 core 146 r2538 121396c
Encoding settings : cabac=1 / ref=4 / deblock=1:-3:-3 / analyse=0x3:0x113 / me=umh / subme=10 / psy=1 / psy_rd=1.00:0.00 / mixed_ref=1 / me_range=32 / chroma_me=1 / trellis=2 / 8x8dct=1 / cqm=0 / deadzone=21,11 / fast_pskip=0 / chroma_qp_offset=-2 / threads=12 / lookahead_threads=3 / sliced_threads=0 / nr=0 / decimate=0 / interlaced=0 / bluray_compat=0 / constrained_intra=0 / bframes=12 / b_pyramid=2 / b_adapt=2 / b_bias=0 / direct=3 / weightb=1 / open_gop=0 / weightp=2 / keyint=250 / keyint_min=23 / scenecut=40 / intra_refresh=0 / rc_lookahead=60 / rc=2pass / mbtree=0 / bitrate=13000 / ratetol=1.0 / qcomp=0.70 / qpmin=0 / qpmax=69 / qpstep=4 / cplxblur=20.0 / qblur=0.5 / vbv_maxrate=40000 / vbv_bufsize=30000 / nal_hrd=none / filler=0 / frame-packing=4 / ip_ratio=1.40 / pb_ratio=1.30 / aq=1:0.70
Language : English
Default : Yes
Forced : No
Audio #1
ID : 2
Format : AC-3
Format/Info : Audio Coding 3
Commercial name : Dolby Digital
Codec ID : A_AC3
Duration : 2 h 21 min
Bit rate mode : Constant
Bit rate : 384 kb/s
Channel(s) : 6 channels
Channel layout : L R C LFE Ls Rs
Sampling rate : 48.0 kHz
Frame rate : 31.250 FPS (1536 SPF)
Compression mode : Lossy
Stream size : 390 MiB (3%)
Title : Дубляж (iTunes)
Language : Russian
Service kind : Complete Main
Default : Yes
Forced : No
Audio #2
ID : 3
Format : AC-3
Format/Info : Audio Coding 3
Commercial name : Dolby Digital
Codec ID : A_AC3
Duration : 2 h 21 min
Bit rate mode : Constant
Bit rate : 640 kb/s
Channel(s) : 6 channels
Channel layout : L R C LFE Ls Rs
Sampling rate : 48.0 kHz
Frame rate : 31.250 FPS (1536 SPF)
Compression mode : Lossy
Stream size : 650 MiB (4%)
Title : Дубляж
Language : Ukrainian
Service kind : Complete Main
Default : No
Forced : No
Audio #3
ID : 4
Format : AC-3
Format/Info : Audio Coding 3
Commercial name : Dolby Digital
Codec ID : A_AC3
Duration : 2 h 21 min
Bit rate mode : Constant
Bit rate : 640 kb/s
Channel(s) : 6 channels
Channel layout : L R C LFE Ls Rs
Sampling rate : 48.0 kHz
Frame rate : 31.250 FPS (1536 SPF)
Compression mode : Lossy
Stream size : 650 MiB (4%)
Title : Original (BD UHD)
Language : English
Service kind : Complete Main
Default : No
Forced : No
Text #1
ID : 5
Format : UTF-8
Codec ID : S_TEXT/UTF8
Codec ID/Info : UTF-8 Plain Text
Title : Форсированные
Language : Russian
Default : Yes
Forced : No
Text #2
ID : 6
Format : UTF-8
Codec ID : S_TEXT/UTF8
Codec ID/Info : UTF-8 Plain Text
Title : Полные
Language : Russian
Default : No
Forced : No
Text #3
ID : 7
Format : UTF-8
Codec ID : S_TEXT/UTF8
Codec ID/Info : UTF-8 Plain Text
Title : SDH
Language : Russian
Default : No
Forced : No
Text #4
ID : 8
Format : UTF-8
Codec ID : S_TEXT/UTF8
Codec ID/Info : UTF-8 Plain Text
Title : Форсированные
Language : Ukrainian
Default : No
Forced : No
Text #5
ID : 9
Format : UTF-8
Codec ID : S_TEXT/UTF8
Codec ID/Info : UTF-8 Plain Text
Title : Full
Language : English
Default : No
Forced : No
Text #6
ID : 10
Format : UTF-8
Codec ID : S_TEXT/UTF8
Codec ID/Info : UTF-8 Plain Text
Title : SDH
Language : English
Default : No
Forced : No
Menu
00:00:00.000 : : 1. Opening Logo
00:00:09.188 : : 2. The Rise of Skywalker
00:01:40.946 : : 3. Kylo Ren's Quest
00:03:47.823 : : 4. Exegol
00:06:42.914 : : 5. Millennium Falcon Mission
00:08:26.685 : : 6. Pursuit of the Falcon
00:10:04.907 : : 7. Rey's Training Course
00:12:48.155 : : 8. General Leia
00:13:54.012 : : 9. The Falcon's Back
00:15:17.429 : : 10. Spy Message
00:17:13.211 : : 11. "We Go Together"
00:19:25.051 : : 12. Ren Reforged
00:21:28.590 : : 13. Pasaana Festival
00:25:27.705 : : 14. General Calrissian
00:27:14.896 : : 15. Speeder Chase
00:30:41.561 : : 16. Buried Secrets
00:35:49.076 : : 17. Power Unleashed
00:41:37.757 : : 18. Aftermath
00:43:15.272 : : 19. "In This Till the End"
00:45:28.362 : : 20. Meeting Zorii
00:48:24.581 : : 21. Babu Frik's Workshop
00:54:37.578 : : 22. Into the Destroyer
00:58:49.205 : : 23. Revelations
01:02:54.781 : : 24. Repercussions
01:06:23.115 : : 25. To Kef Bir
01:09:54.618 : : 26. Jannah
01:13:07.393 : : 27. The Emperor's Vault
01:18:23.626 : : 28. The Duel
01:23:41.236 : : 29. Remembrance
01:27:02.896 : : 30. The Final Order Begins
01:30:23.138 : : 31. The Destiny of a Jedi
01:35:00.831 : : 32. Battle Plans
01:38:47.892 : : 33. Welcome to Exegol
01:40:35.875 : : 34. Drop Zone
01:43:03.147 : : 35. Throne of the Sith
01:45:27.875 : : 36. Dark Turn
01:48:48.200 : : 37. Dyad in the Force
01:53:27.646 : : 38. The Galaxy Responds
01:55:30.768 : : 39. Emperor Reborn
01:59:02.981 : : 40. Last Chance
02:01:37.759 : : 41. Ben
02:05:20.441 : : 42. Victory
02:09:42.702 : : 43. Saga's End
02:12:25.907 : : 44. End Credits

Для оценки 3Д - Анимированные скрины




















[Цитировать]



Показать сообщения:    

Текущее время: 03-Июн 08:30

Часовой пояс: UTC + 6


Вы не можете начинать темы
Вы не можете отвечать на сообщения
Вы не можете редактировать свои сообщения
Вы не можете удалять свои сообщения
Вы не можете голосовать в опросах
Вы не можете прикреплять файлы к сообщениям
Вы не можете скачивать файлы

!ВНИМАНИЕ!
Сайт не предоставляет электронные версии произведений, а занимается лишь коллекционированием и каталогизацией ссылок, присылаемых и публикуемых на форуме нашими читателями. Если вы являетесь правообладателем какого-либо представленного материала и не желаете, чтобы ссылка на него находилась в нашем каталоге, свяжитесь с нами, и мы незамедлительно удалим ее. Файлы для обмена на трекере предоставлены пользователями сайта, и администрация не несет ответственности за их содержание. Просьба не заливать файлы, защищенные авторскими правами, а также файлы нелегального содержания!