***Уважаемые пользователи и гости !!! Сайт переехал на новый домен Torrents-club.info. Просьба изменить ваши закладки! ***
 
[ Сегодня идет свободное скачивание без начисления Download ]


Статистика раздачи
Скачал: [ 1 ]
 
   
 
 
 
 
Вперёд / Onward Информация
Название: Вперёд
Оригинальное название: Onward
Год выхода: 2020
Жанр: Мультфильм, фэнтези, комедия, приключения, семейный
Режиссер: Дэн Скэнлон
Роли озвучивают: Том Холланд, Крис Пратт, Джулия Луис-Дрейфус, Джон Ратценбергер, Октавия Спенсер, Мэл Родригез, Лина Уэйте, Али Вонг, Грэй Гриффин, Трейси Ульман
Описание: Когда-то давно в сказочном мире царила магия, но после открытия электричества маги стали не нужны, и развитие пошло по техногенному пути. Теперь эльфы, тролли, гоблины, мантикоры, феи, кентавры и единороги летают на самолетах, пользуются автомобилями и мобильниками и ведут в целом прозаичную жизнь.
Братья-эльфы Иэн и Барли Лайтфуты воспитывались одной мамой, потому что их отец умер, когда они были ещё совсем маленькими. На 16-летие Иэну достаётся посох отца, и магическое заклинание, которое должно вернуть того к жизни на один день, но волшебный кристалл исчезает, воскресив только нижнюю половину папы. Барли, большой любитель квестов, невероятно рад — прихватив полупапу, братья отправляются в приключение на поиски другого кристалла.

Страна: США
Студия: Pixar Animation Studios, Walt Disney Pictures
Продолжительность: 01:42:21
Перевод: Дублированый | iTunes
Файл
Формат: MKV
Качество: BDRip-AVC
Источник: |Onward.2020.BDREMUX.1080p.seleZen|
Видео: 720x302 (2.40:1), 23.976 fps, x264 ~951 kbps avg, 0.182 bit/pixel
Звук: 48 kHz, HE-AAC, 2 ch, ~64 kbps avg
Субтитры: Русские (Full), английские
Релиз:

MediaInfo:

Format : Matroska
Format version : Version 4
File size : 745 MiB
Duration : 1 h 42 min
Overall bit rate : 1 018 kb/s
Movie name : Вперёд / Onward (2020) BDRip(AVC) OlLanDGroup#Skandar
Encoded date : UTC 2020-05-19 06:25:10
Writing application : mkvmerge v31.0.0 ('Dolores In A Shoestand') 64-bit
Writing library : libebml v1.3.6 + libmatroska v1.4.9
Cover : Yes
Attachments : cover.jpg
Video
ID : 1
Format : AVC
Format/Info : Advanced Video Codec
Format profile : High@L4.1
Format settings : CABAC / 10 Ref Frames
Format settings, CABAC : Yes
Format settings, ReFrames : 10 frames
Codec ID : V_MPEG4/ISO/AVC
Duration : 1 h 42 min
Bit rate : 951 kb/s
Width : 720 pixels
Height : 302 pixels
Display aspect ratio : 2.40:1
Frame rate mode : Constant
Frame rate : 23.976 (24000/1001) FPS
Color space : YUV
Chroma subsampling : 4:2:0
Bit depth : 8 bits
Scan type : Progressive
Bits/(Pixel*Frame) : 0.182
Stream size : 696 MiB (93%)
Title : Вперёд / Onward (2020) BDRip(AVC) OlLanDGroup#Skandar
Writing library : x264 core 146 r2538 121396c
Encoding settings : cabac=1 / ref=10 / deblock=1:-3:-3 / analyse=0x3:0x133 / me=umh / subme=11 / psy=1 / psy_rd=0.97:0.05 / mixed_ref=1 / me_range=48 / chroma_me=1 / trellis=2 / 8x8dct=1 / cqm=0 / deadzone=21,11 / fast_pskip=0 / chroma_qp_offset=-3 / threads=6 / lookahead_threads=1 / sliced_threads=0 / nr=0 / decimate=0 / interlaced=0 / bluray_compat=0 / constrained_intra=0 / bframes=11 / b_pyramid=2 / b_adapt=2 / b_bias=0 / direct=3 / weightb=1 / open_gop=0 / weightp=2 / keyint=240 / keyint_min=23 / scenecut=40 / intra_refresh=0 / rc_lookahead=40 / rc=2pass / mbtree=0 / bitrate=951 / ratetol=1.0 / qcomp=0.60 / qpmin=0 / qpmax=69 / qpstep=4 / cplxblur=20.0 / qblur=0.5 / vbv_maxrate=50000 / vbv_bufsize=62500 / nal_hrd=none / filler=0 / ip_ratio=1.40 / pb_ratio=1.30 / aq=1:1.00
Language : English
Default : Yes
Forced : No
Audio
ID : 2
Format : AAC LC SBR
Format/Info : Advanced Audio Codec Low Complexity with Spectral Band Replication
Commercial name : HE-AAC
Format settings : Explicit
Codec ID : A_AAC-2
Duration : 1 h 42 min
Bit rate : 64.0 kb/s
Channel(s) : 2 channels
Channel layout : L R
Sampling rate : 48.0 kHz
Frame rate : 23.438 FPS (2048 SPF)
Compression mode : Lossy
Delay relative to video : 31 ms
Stream size : 46.9 MiB (6%)
Title : DUB | iTunes
Language : Russian
Default : Yes
Forced : No
Text #1
ID : 3
Format : UTF-8
Codec ID : S_TEXT/UTF8
Codec ID/Info : UTF-8 Plain Text
Duration : 1 h 31 min
Bit rate : 113 b/s
Count of elements : 1556
Stream size : 76.3 KiB (0%)
Title : Full
Language : Russian
Default : No
Forced : No
Text #2
ID : 4
Format : UTF-8
Codec ID : S_TEXT/UTF8
Codec ID/Info : UTF-8 Plain Text
Duration : 1 h 35 min
Bit rate : 75 b/s
Count of elements : 1904
Stream size : 53.0 KiB (0%)
Language : English
Default : No
Forced : No
Menu
00:00:00.686 : en:Studio Logo
00:00:49.686 : en:Long ago
00:03:04.686 : en:Title Sequence
00:03:09.686 : en:Ian's morning
00:05:03.686 : en:Officer Bronco comes to Ligjtfoots
00:07:03.686 : en:Ian meet Dad's friend
00:08:14.686 : en:Making a list
00:09:34.686 : en:Ian starts his day
00:12:44.686 : en:Ian misses his Dad
00:14:53.686 : en:A gift from Dad
00:19:17.686 : en:Ian is at his room
00:20:38.686 : en:Barley comes up with something
00:23:46.686 : en:Barley drives his car
00:25:34.686 : en:Learning magic
00:27:25.686 : en:The boys look for the Manticore
00:31:21.686 : en:The Manticore comes back
00:32:49.686 : en:Laurel worries about the boys
00:36:33.686 : en:Guinevere gets a trouble
00:39:34.686 : en:Ian tries magic again
00:42:48.686 : en:The Manticore talks to Laurel
00:44:00.686 : en:Ian drives Guinevere
00:47:48.686 : en:The spell wears off
00:51:43.686 : en:Barley argues with Ian
00:54:59.686 : en:Grecklin of the Pawn shop
00:56:07.686 : en:Bronco calls Laurel
00:57:24.686 : en:Raven's Point
01:03:06.686 : en:Bronco chases the boys
01:07:05.686 : en:The boys follow the birds
01:08:49.686 : en:Ian likes the spell
01:10:06.686 : en:Laurel encounters Pixie Dusters
01:11:12.686 : en:Barley talks about Dad
01:13:30.686 : en:The boys are in dangerous
01:15:58.686 : en:Back where they started
01:17:59.686 : en:Barley cannot give it up
01:20:26.686 : en:It's curse
01:22:44.686 : en:I am a mighty warrior
01:24:26.686 : en:Ian's decision
01:26:59.686 : en:What Ian see
01:30:07.686 : en:Ian back to his school
01:32:53.686 : en:End Credits

Скриншоты


[Цитировать]



Показать сообщения:    

Текущее время: 05-Авг 22:54

Часовой пояс: UTC + 6


Вы не можете начинать темы
Вы не можете отвечать на сообщения
Вы не можете редактировать свои сообщения
Вы не можете удалять свои сообщения
Вы не можете голосовать в опросах
Вы не можете прикреплять файлы к сообщениям
Вы не можете скачивать файлы

!ВНИМАНИЕ!
Сайт не предоставляет электронные версии произведений, а занимается лишь коллекционированием и каталогизацией ссылок, присылаемых и публикуемых на форуме нашими читателями. Если вы являетесь правообладателем какого-либо представленного материала и не желаете, чтобы ссылка на него находилась в нашем каталоге, свяжитесь с нами, и мы незамедлительно удалим ее. Файлы для обмена на трекере предоставлены пользователями сайта, и администрация не несет ответственности за их содержание. Просьба не заливать файлы, защищенные авторскими правами, а также файлы нелегального содержания!