***Уважаемые пользователи и гости !!! Сайт переехал на новый домен Torrents-club.info. Просьба изменить ваши закладки! ***
 
[ Сегодня идет свободное скачивание без начисления Download ]


Статистика раздачи
Скачал: [ 2 ]
 
   
 
 
 
 
Морские котики / Navy Seals (1990) BDRip 720p | 60 fps Год выпуска: 1990
Страна: США, Испания
Жанр: Боевик, приключения, триллер
Продолжительность: 01:53:35
Перевод: AVO (А.Гаврилов)
Субтитры: English
Режиссер: Льюис Тиг
Премьера в мире: 20 июля 1990

В ролях:
Чарли Шин, Майкл Бин, Джоанн Уолли, Рик Россович, Сирил О’Райлли, Билл Пэкстон, Дэннис Хэйсберт, Пол Санчез, Николас Кади, Рональд Дж. Джозеф, С. Эпата Меркерсон, Грегори МакКинни, Роб Моран, Ричард Венчур, Марк Карлтон, Айра Уилер, Рон Фабер, Уильям Корт, Рэнди Холл, Дункан Смит, Уильям Найт, Марк Цубер, Вик Тэблиан, Адам Хуссейн, Иэн Тайлер, Эзра Абрахам, Джон Прюитт, Уильям Робертс, Майкл Фицпатрик, Катрин Де Прюм, Титус Уэлливер, Дэвид Баркхофф, Эд Бишоп, Расселл Боббитт, Кертис Буш, Майк Баттерс, Джим Винс, Джастин Вульф
Сюжет фильма:
Спасая пилотов, захваченных террористами, морские пехотинцы лейтенанты Корран и Хокинс обнаруживают во вражеском стане ракетные установки, которыми был сбит пассажирский самолет. "Морские котики" получают задание найти склад ракет и уничтожить его. Журналистка Клэр Вэрринс помогает им определить круг лиц, знающих о ракетах. "Котики" вылетают на Ближний Восток и похищают высокопоставленного чиновника. Получив сведения, что ракеты хранятся в одной из школ Бейрута, морские пехотинцы проводят блестящую операцию по уничтожению этого склада и главных террористов...
Качество видео: BDRip 720p / 60 FPS
Формат: MKV
Видео кодек: H.264
Аудио кодек: AC3
Видео: x264, 1280 x 696 ( 1,85:1 ), 5687 kbps, 60,000 fps, ( 0.106 bpp)
Аудио: Русский, AC-3, 48.0 KHz, 6 ch, 384 Kbps ( AVO (А.Гаврилов))

MediaInfo:

x264 [info]: frame I:2288 Avg QP:18.71 size: 69888
x264 [info]: frame P:93119 Avg QP:19.81 size: 25444
x264 [info]: frame B:313109 Avg QP:21.79 size: 7381
x264 [info]: consecutive B-frames: 1.5% 1.9% 8.2% 16.2% 63.4% 8.8%
Общее
Уникальный идентификатор : 206636362798664066912813048278522842243 (0x9B74B74357C89A588EB6134D0418CC83)
Полное имя : F:\Navy.Seals.(1990).BDRip.720p.(60 Fps).mkv
Формат : Matroska
Версия формата : Version 4
Размер файла : 4,82 Гбайт
Продолжительность : 1 ч. 53 м.
Общий поток : 6075 Кбит/сек
Название фильма : Морские котики / Navy Seals (1990) BDRip 720p (60 Fps)
Дата кодирования : UTC 2020-05-11 15:20:56
Программа кодирования : mkvmerge v42.0.0 ('Overtime') 64-bit
Библиотека кодирования : libebml v1.3.10 + libmatroska v1.5.2
Видео
Идентификатор : 1
Формат : AVC
Формат/Информация : Advanced Video Codec
Профиль формата : High@L4.1
Настройки формата : CABAC / 9 Ref Frames
Параметр CABAC формата : Да
Параметр RefFrames формата : 9 кадров
Идентификатор кодека : V_MPEG4/ISO/AVC
Продолжительность : 1 ч. 53 м.
Битрейт : 5687 Кбит/сек
Ширина : 1280 пикселей
Высота : 696 пикселей
Соотношение сторон : 1,85:1
Режим частоты кадров : Постоянный
Частота кадров : 60,000 кадров/сек
Цветовое пространство : YUV
Субдискретизация насыщенности : 4:2:0
Битовая глубина : 8 бит
Тип развёртки : Прогрессивная
Бит/(Пиксели*Кадры) : 0.106
Размер потока : 4,51 Гбайт (94%)
Заголовок : slaventi-69 ( R.G. HD-Films | 60 fps )
Библиотека кодирования : x264 core 130 r2273 b3065e6
Настройки программы : cabac=1 / ref=9 / deblock=1:0:0 / analyse=0x3:0x133 / me=umh / subme=9 / psy=1 / psy_rd=1.00:0.00 / mixed_ref=1 / me_range=26 / chroma_me=1 / trellis=2 / 8x8dct=1 / cqm=0 / deadzone=21,11 / fast_pskip=0 / chroma_qp_offset=-2 / threads=4 / lookahead_threads=1 / sliced_threads=0 / nr=0 / decimate=1 / interlaced=0 / bluray_compat=0 / constrained_intra=0 / bframes=5 / b_pyramid=2 / b_adapt=2 / b_bias=0 / direct=3 / weightb=1 / open_gop=0 / weightp=2 / keyint=250 / keyint_min=25 / scenecut=40 / intra_refresh=0 / rc=crf / mbtree=0 / crf=18.3 / qcomp=0.60 / qpmin=0 / qpmax=69 / qpstep=4 / ip_ratio=1.40 / pb_ratio=1.30 / aq=1:1.00
Язык : English
Default : Да
Forced : Нет
Аудио
Идентификатор : 2
Формат : AC-3
Формат/Информация : Audio Coding 3
Коммерческое название : Dolby Digital
Идентификатор кодека : A_AC3
Продолжительность : 1 ч. 53 м.
Вид битрейта : Постоянный
Битрейт : 384 Кбит/сек
Каналы : 6 каналов
Channel layout : L R C LFE Ls Rs
Частота : 48,0 КГц
Частота кадров : 31,250 кадров/сек (1536 SPF)
Битовая глубина : 16 бит
Метод сжатия : С потерями
Размер потока : 312 Мбайт (6%)
Заголовок : AVO (А.Гаврилов)
Язык : Russian
ServiceKind/String : Complete Main
Default : Да
Forced : Нет
Текст
Идентификатор : 3
Формат : UTF-8
Идентификатор кодека : S_TEXT/UTF8
Идентификатор кодека/Информация : UTF-8 Plain Text
Продолжительность : 1 ч. 47 м.
Битрейт : 45 бит/сек
ElementCount : 1101
Размер потока : 35,9 Кбайт (0%)
Язык : English
Default : Нет
Forced : Нет
Меню
00:00:00.000 : :Chapter 01
00:03:59.864 : :Chapter 02
00:08:52.323 : :Chapter 03
00:15:50.782 : :Chapter 04
00:20:23.388 : :Chapter 05
00:26:17.242 : :Chapter 06
00:31:01.609 : :Chapter 07
00:40:01.273 : :Chapter 08
00:46:15.272 : :Chapter 09
00:56:53.076 : :Chapter 10
01:03:32.016 : :Chapter 11
01:09:18.362 : :Chapter 12
01:20:38.041 : :Chapter 13
01:30:12.740 : :Chapter 14
01:38:33.282 : :Chapter 15
01:48:26.124 : :Chapter 16
01:53:35.183 : :Chapter 17

[Цитировать]



Показать сообщения:    

Текущее время: 29-Май 10:10

Часовой пояс: UTC + 6


Вы не можете начинать темы
Вы не можете отвечать на сообщения
Вы не можете редактировать свои сообщения
Вы не можете удалять свои сообщения
Вы не можете голосовать в опросах
Вы не можете прикреплять файлы к сообщениям
Вы не можете скачивать файлы

!ВНИМАНИЕ!
Сайт не предоставляет электронные версии произведений, а занимается лишь коллекционированием и каталогизацией ссылок, присылаемых и публикуемых на форуме нашими читателями. Если вы являетесь правообладателем какого-либо представленного материала и не желаете, чтобы ссылка на него находилась в нашем каталоге, свяжитесь с нами, и мы незамедлительно удалим ее. Файлы для обмена на трекере предоставлены пользователями сайта, и администрация не несет ответственности за их содержание. Просьба не заливать файлы, защищенные авторскими правами, а также файлы нелегального содержания!