***Уважаемые пользователи и гости !!! Сайт переехал на новый домен Torrents-club.info. Просьба изменить ваши закладки! ***
 
[ Сегодня идет свободное скачивание без начисления Download ]


Статистика раздачи
Скачал: [ 1 ]
 
   
 
 
 
 
Алита: Боевой ангел / Alita: Battle Angel (2019) [4K, HEVC, HDR, HDR10+, Dolby Vision TV / Blu-Ray Remux] (2160p) Год выпуска: 2019
Жанр: Фантастика, боевик, триллер, мелодрама, приключения
Выпущено: Канада, Аргентина, США, Twentieth Century Fox, Lightstorm Entertainment, Troublemaker Studios
Режиссер: Роберт Родригес
Продолжительность: 02:01:57
Перевод: Дублированный
Субтитры: Русские (форс.)
возраст 16+

В ролях:
Роза Салазар, Кристоф Вальц, Дженнифер Коннелли, Махершала Али, Эд Скрейн, Джеки Эрл Хейли, Кин Джонсон, Хорхе Лендеборг мл., Лана Кондор, Идара Виктор

О фильме
: Действие фильма происходит через 300 лет после Великой войны в XXVI веке. Доктор Идо находит останки женщины-киборга. После починки киборг ничего не помнит, но обнаруживает, что в состоянии пользоваться боевыми приемами киборгов. Начинаются поиски утерянных воспоминаний.
Алита: Боевой ангел | Официальный трейлер | HD
Техданные
Качество: Blu-Ray Remux (2160p)
Видео: HEVC, 41.4 Мбит/с, 3840х2160, 23.976 кадр/с
Аудио: Русский (E-AC3, 6 ch, 1536 Кбит/с)
Релиз
Этот релиз гарантированно будет работать на ТВ LG OLED 2019-2021 г.в., других тв с поддержкой DV и устройствах "понимающих" 8-ой профиль. Просьба писать в комментариях, кто протестирует и на каких устройствах!
Если у вас другой тв без Dolby Vision, то этот релиз подойдёт и вам! Будет воспроизводится просто в HDR.
Приятного просмотра!
Алита: Боевой ангел / Alita: Battle Angel / 2019:
Видео: HEVC, 3840x2160, 41.4 Mbps (Dolby Vision, Version 1.0, dvhe.08.06, BL+RPU, HDR10 compatible / SMPTE ST 2094 App 4, Version 1, HDR10+ Profile A compatible)
Аудио: E-AC3 5.1 • 1536 kb/s • [Русский] • Дубляж [Custom]
Субтитры: Русские (Форсированные)
*Звуковая дорожка создана из DTS-HD MA 7.1

MediaInfo:

Общее
Полное имя                               : G:\UHD Films\Alita. Battle Angel (2019).mp4
Формат                                   : MPEG-4
Профиль формата                          : Base Media / Version 2
Идентификатор кодека                     : mp42 (isom/mp42/dby1)
Размер файла                             : 36,6 Гбайт
Продолжительность                        : 2 ч. 1 м.
Режим общего битрейта                    : Переменный
Общий поток                              : 42,9 Мбит/сек
Дата кодирования                         : UTC 2021-04-06 17:15:49
Дата пометки                             : UTC 2021-04-06 17:15:49
Видео
Идентификатор                            : 1
Формат                                   : HEVC
Формат/Информация                        : High Efficiency Video Coding
Профиль формата                          : Main 10@L5.1@High
HDR format                               : Dolby Vision, Version 1.0, dvhe.08.06, BL+RPU, HDR10 compatible / SMPTE ST 2094 App 4, Version 1, HDR10+ Profile A compatible
Идентификатор кодека                     : hev1
Идентификатор кодека/Информация          : High Efficiency Video Coding
Продолжительность                        : 2 ч. 1 м.
Битрейт                                  : 41,4 Мбит/сек
Ширина                                   : 3 840 пикселей
Высота                                   : 2 160 пикселей
Соотношение сторон                       : 16:9
Режим частоты кадров                     : Постоянный
Частота кадров                           : 23,976 (24000/1001) кадра/сек
Цветовое пространство                    : YUV
Субдискретизация насыщенности            : 4:2:0 (Type 2)
Битовая глубина                          : 10 бит
Бит/(Пиксели*Кадры)                      : 0.208
Размер потока                            : 35,3 Гбайт (96%)
Заголовок                                : Alita. Battle Angel by TheEqualizer
Default                                  : Да
Alternate group                          : 1
Дата кодирования                         : UTC 2021-04-06 17:03:15
Дата пометки                             : UTC 2021-04-06 17:17:43
Цветовой диапазон                        : Limited
Основные цвета                           : BT.2020
Характеристики трансфера                 : PQ
Коэффициенты матрицы                     : BT.2020 non-constant
Mastering display color primaries        : Display P3
Mastering display luminance              : min: 0.0001 cd/m2, max: 1000 cd/m2
Maximum Content Light Level              : 182 cd/m2
Maximum Frame-Average Light Level        : 63 cd/m2
Codec configuration box                  : hvcC+dvvC
Аудио
Идентификатор                            : 2
Формат                                   : E-AC-3
Формат/Информация                        : Enhanced AC-3
Коммерческое название                    : Dolby Digital Plus
Идентификатор кодека                     : ec-3
Продолжительность                        : 2 ч. 1 м.
Вид битрейта                             : Постоянный
Битрейт                                  : 1 536 Кбит/сек
Максимальный битрейт                     : 1 622 Кбит/сек
Каналы                                   : 6 каналов
Channel layout                           : L R C LFE Ls Rs
Частота                                  : 48,0 КГц
Частота кадров                           : 62,500 кадра/сек (768 SPF)
Метод сжатия                             : С потерями
Размер потока                            : 1,31 Гбайт (4%)
Заголовок                                : E-AC3 • 5.1 • 1536 kb/s • Дубляж [Custom]
Язык                                     : Russian
Service kind                             : Complete Main
Default                                  : Да
Alternate group                          : 1
Дата пометки                             : UTC 2021-04-06 17:17:43
Текст
Идентификатор                            : 3
Формат                                   : Timed Text
Идентификатор кодека                     : tx3g
Продолжительность                        : 1 ч. 36 м.
Duration_FirstFrame                      : 1 ч. 36 м.
Вид битрейта                             : Переменный
Битрейт                                  : 0 бит/сек
Размер потока                            : 100 байт (0%)
Заголовок                                : Forced
Язык                                     : Russian
Forced                                   : Нет
Дата кодирования                         : UTC 2021-04-06 17:17:43
Дата пометки                             : UTC 2021-04-06 17:17:43

Скриншоты

[Цитировать]



Показать сообщения:    

Текущее время: 13-Апр 20:34

Часовой пояс: UTC + 6


Вы не можете начинать темы
Вы не можете отвечать на сообщения
Вы не можете редактировать свои сообщения
Вы не можете удалять свои сообщения
Вы не можете голосовать в опросах
Вы не можете прикреплять файлы к сообщениям
Вы не можете скачивать файлы

!ВНИМАНИЕ!
Сайт не предоставляет электронные версии произведений, а занимается лишь коллекционированием и каталогизацией ссылок, присылаемых и публикуемых на форуме нашими читателями. Если вы являетесь правообладателем какого-либо представленного материала и не желаете, чтобы ссылка на него находилась в нашем каталоге, свяжитесь с нами, и мы незамедлительно удалим ее. Файлы для обмена на трекере предоставлены пользователями сайта, и администрация не несет ответственности за их содержание. Просьба не заливать файлы, защищенные авторскими правами, а также файлы нелегального содержания!