***Уважаемые пользователи и гости !!! Сайт переехал на новый домен Torrents-club.info. Просьба изменить ваши закладки! ***
 
[ Сегодня идет свободное скачивание без начисления Download ]


Статистика раздачи
Скачал: [ 2 ]
 
   
 
 
 
 
Джон Уик 2 / John Wick: Chapter Two (2017) [HEVC, HDR, 4K / Blu-Ray Remux] (2160p) Год выпуска: 2017
Жанр: Боевик, триллер, криминал
Выпущено: США, 87Eleven, Lionsgate, Summit Entertainment, Thunder Road
Режиссер: Чад Стахелски
Продолжительность: 02:02:23
Перевод: Дублированный, авторский
Субтитры: Русские, английские
возраст 18+
В ролях: Киану Ривз, Риккардо Скамарчо, Иэн МакШейн, Руби Роуз, Коммон, Клаудия Джерини, Лэнс Реддик, Лоуренс Фишборн, Тобиаш Сигал, Джон Легуизамо
О фильме: Бесконечно стильный киллер Джон Уик продолжает осваивать набор цветных карандашей и ластик в своем опасном и трудном ремесле вестника смерти. Его война с кланом русской мафии окончена, собака выгуляна и накормлена, а любимый "Мустанг" отдан в автосервис. Но спокойно уйти на пенсию Бабе-яге не позволяет старый знакомый, потребовавший вернуть долг чести в порядке договора дружбы и взаимопомощи, скрепленного кровавой клятвой. И Джон вновь вынужден вернуться к своей прежней работе, что не сулит таинственной гильдии убийц ничего хорошего, доброго и светлого.
Джон Уик 2
Техданные
Качество: Blu-Ray Remux (2160p)
Видео: HEVC, HDR, 77948 Кбит/с, 3840x2160, 23.976 кадр/с
Аудио: Русский (AC3, 6 ch, 384 Кбит/с), (DTS-HD MA, 8 ch, ~ 5341 Кбит/с), английский (DTS-HD MA, 8 ch, 5243 Кбит/с), (AC3, 2 ch, 224 Кбит/с), (AC3, 6 ch, 640 Кбит/с)

Релиз

Видео: MPEG-H HEVC Video / 77948 kbps / 3840x2160 / 23.976 fps / 16:9 / Main 10 Profile 5.1 High / 4:2:0 / 10 bits / HDR10 / Limited Range / BT.2020
Аудио 1: Russian AC3 / 5.1 / 48 kHz / 384 kbps / 16 bits |Dub, Пифагор|
Аудио 2: Russian DTS-HD Master Audio / 7.1 / 48 kHz / 5341 kbps / 24-bit (DTS Core: 5.1 / 48 kHz / 1509 kbps / 24-bit) |Ю. Живов|
Аудио 3: Russian DTS-HD Master Audio / 7.1 / 48 kHz / 5622 kbps / 24-bit (DTS-ES Core: 5.1 / 48 kHz / 1509 kbps / 24-bit) |Д. Есарев|
Аудио 4: Russian DTS-HD Master Audio / 7.1 / 48 kHz / 4326 kbps / 24-bit (DTS Core: 5.1 / 48 kHz / 1509 kbps / 24-bit) |Е. Солодухин|
Аудио 5: Russian DTS-HD Master Audio / 7.1 / 48 kHz / 4396 kbps / 24-bit (DTS Core: 5.1 / 48 kHz / 1509 kbps / 24-bit) |А. Матвеев|
Аудио 6: English Dolby TrueHD/Atmos Audio / 7.1-Atmos / 48 kHz / 5243 kbps / 24-bit |original|
Аудио 7: English AC3 Core: 5.1-EX / 48 kHz / 640 kbps |original|
Аудио 8: English AC3 / 2.0 / 48 kHz / 224 kbps / 16 bits |Commentary with Chad Stahelski & Keanu Reeves|
Субтитры: русские (forced, full), английские (full, SDH, SDH-Colored)

MediaInfo:

Общее
Уникальный идентификатор                 : 63652261173326326810912323049565121622 (0x2FE2FAC5E5995EFF5F04C96309E2EC56)
Полное имя                               : D:\UHD\Джон Уик 2.2017.UHD.BluRay.Remux.2160p.mkv
Формат                                   : Matroska
Версия формата                           : Version 4
Размер файла                             : 88,5 Гбайт
Продолжительность                        : 2 ч. 2 м.
Режим общего битрейта                    : Переменный
Общий поток                              : 104 Мбит/сек
Дата кодирования                         : UTC 2020-06-12 14:12:23
Программа кодирования                    : mkvmerge v47.0.0 ('Black Flag') 64-bit
Библиотека кодирования                   : libebml v1.3.10 + libmatroska v1.5.2
Attachments                              : poster.jpg
Видео
Идентификатор                            : 1
Формат                                   : HEVC
Формат/Информация                        : High Efficiency Video Coding
Профиль формата                          : Main 10@L5.1@High
HDR format                               : SMPTE ST 2086, HDR10 compatible
Идентификатор кодека                     : V_MPEGH/ISO/HEVC
Продолжительность                        : 2 ч. 2 м.
Битрейт                                  : 77,9 Мбит/сек
Ширина                                   : 3 840 пикселей
Высота                                   : 2 160 пикселей
Соотношение сторон                       : 16:9
Режим частоты кадров                     : Постоянный
Частота кадров                           : 23,976 (24000/1001) кадра/сек
Цветовое пространство                    : YUV
Субдискретизация насыщенности            : 4:2:0 (Type 2)
Битовая глубина                          : 10 бит
Бит/(Пиксели*Кадры)                      : 0.392
Размер потока                            : 66,6 Гбайт (75%)
Библиотека кодирования                   : ATEME Titan File 3.7.9 (4.7.9.0)
Default                                  : Да
Forced                                   : Нет
Цветовой диапазон                        : Limited
Основные цвета                           : BT.2020
Характеристики трансфера                 : PQ
Коэффициенты матрицы                     : BT.2020 non-constant
Mastering display color primaries        : Display P3
Mastering display luminance              : min: 0.0000 cd/m2, max: 1000 cd/m2
Maximum Content Light Level              : 1000 cd/m2
Maximum Frame-Average Light Level        : 510 cd/m2
Аудио #1
Идентификатор                            : 2
Формат                                   : AC-3
Формат/Информация                        : Audio Coding 3
Коммерческое название                    : Dolby Digital
Идентификатор кодека                     : A_AC3
Продолжительность                        : 2 ч. 2 м.
Вид битрейта                             : Постоянный
Битрейт                                  : 384 Кбит/сек
Каналы                                   : 6 каналов
Channel layout                           : L R C LFE Ls Rs
Частота                                  : 48,0 КГц
Частота кадров                           : 31,250 кадров/сек (1536 SPF)
Метод сжатия                             : С потерями
Размер потока                            : 336 Мбайт (0%)
Заголовок                                : Dub, Пифагор
Язык                                     : Russian
Service kind                             : Complete Main
Default                                  : Да
Forced                                   : Нет
Аудио #2
Идентификатор                            : 3
Формат                                   : DTS XLL
Формат/Информация                        : Digital Theater Systems
Коммерческое название                    : DTS-HD Master Audio
Идентификатор кодека                     : A_DTS
Продолжительность                        : 2 ч. 2 м.
Вид битрейта                             : Переменный
Битрейт                                  : 5 341 Кбит/сек
Каналы                                   : 8 каналов
Channel layout                           : C L R LFE Lb Rb Lss Rss
Частота                                  : 48,0 КГц
Частота кадров                           : 93,750 кадра/сек (512 SPF)
Битовая глубина                          : 24 бит
Метод сжатия                             : Без потерь
Размер потока                            : 4,57 Гбайт (5%)
Заголовок                                : Ю. Живов
Язык                                     : Russian
Default                                  : Нет
Forced                                   : Нет
Аудио #3
Идентификатор                            : 4
Формат                                   : DTS ES XLL
Формат/Информация                        : Digital Theater Systems
Коммерческое название                    : DTS-HD Master Audio
Идентификатор кодека                     : A_DTS
Продолжительность                        : 2 ч. 2 м.
Вид битрейта                             : Переменный
Битрейт                                  : 5 622 Кбит/сек
Каналы                                   : 8 каналов
Channel layout                           : C L R Ls Rs LFE Lb Rb
Частота                                  : 48,0 КГц
Частота кадров                           : 93,750 кадра/сек (512 SPF)
Битовая глубина                          : 24 бит
Метод сжатия                             : Без потерь
Размер потока                            : 4,81 Гбайт (5%)
Заголовок                                : Д. Есарев
Язык                                     : Russian
Default                                  : Нет
Forced                                   : Нет
Аудио #4
Идентификатор                            : 5
Формат                                   : DTS XLL
Формат/Информация                        : Digital Theater Systems
Коммерческое название                    : DTS-HD Master Audio
Идентификатор кодека                     : A_DTS
Продолжительность                        : 2 ч. 2 м.
Вид битрейта                             : Переменный
Битрейт                                  : 4 326 Кбит/сек
Каналы                                   : 8 каналов
Channel layout                           : C L R LFE Lb Rb Lss Rss
Частота                                  : 48,0 КГц
Частота кадров                           : 93,750 кадра/сек (512 SPF)
Битовая глубина                          : 24 бит
Метод сжатия                             : Без потерь
Размер потока                            : 3,70 Гбайт (4%)
Заголовок                                : Е. Солодухин
Язык                                     : Russian
Default                                  : Нет
Forced                                   : Нет
Аудио #5
Идентификатор                            : 6
Формат                                   : DTS XLL
Формат/Информация                        : Digital Theater Systems
Коммерческое название                    : DTS-HD Master Audio
Идентификатор кодека                     : A_DTS
Продолжительность                        : 2 ч. 2 м.
Вид битрейта                             : Переменный
Битрейт                                  : 4 396 Кбит/сек
Каналы                                   : 8 каналов
Channel layout                           : C L R LFE Lb Rb Lss Rss
Частота                                  : 48,0 КГц
Частота кадров                           : 93,750 кадра/сек (512 SPF)
Битовая глубина                          : 24 бит
Метод сжатия                             : Без потерь
Размер потока                            : 3,76 Гбайт (4%)
Заголовок                                : А. Матвеев
Язык                                     : Russian
Default                                  : Нет
Forced                                   : Нет
Аудио #6
Идентификатор                            : 7
Формат                                   : MLP FBA 16-ch
Формат/Информация                        : Meridian Lossless Packing FBA with 16-channel presentation
Коммерческое название                    : Dolby TrueHD with Dolby Atmos
Идентификатор кодека                     : A_TRUEHD
Продолжительность                        : 2 ч. 2 м.
Вид битрейта                             : Переменный
Битрейт                                  : 4 603 Кбит/сек
Максимальный битрейт                     : 7 806 Кбит/сек
Каналы                                   : 8 каналов
Channel layout                           : L R C LFE Ls Rs Lb Rb
Частота                                  : 48,0 КГц
Частота кадров                           : 1 200,000 кадров/сек (40 SPF)
Метод сжатия                             : Без потерь
Размер потока                            : 3,93 Гбайт (4%)
Язык                                     : English
Default                                  : Нет
Forced                                   : Нет
Number of dynamic objects                : 15
Bed channel count                        : 1 канал
Bed channel configuration                : LFE
Аудио #7
Идентификатор                            : 8
Формат                                   : AC-3
Формат/Информация                        : Audio Coding 3
Коммерческое название                    : Dolby Digital
Идентификатор кодека                     : A_AC3
Продолжительность                        : 2 ч. 2 м.
Вид битрейта                             : Постоянный
Битрейт                                  : 640 Кбит/сек
Каналы                                   : 6 каналов
Channel layout                           : L R C LFE Ls Rs
Частота                                  : 48,0 КГц
Частота кадров                           : 31,250 кадров/сек (1536 SPF)
Метод сжатия                             : С потерями
Размер потока                            : 560 Мбайт (1%)
Язык                                     : English
Service kind                             : Complete Main
Default                                  : Нет
Forced                                   : Нет
Аудио #8
Идентификатор                            : 9
Формат                                   : AC-3
Формат/Информация                        : Audio Coding 3
Коммерческое название                    : Dolby Digital
Идентификатор кодека                     : A_AC3
Продолжительность                        : 2 ч. 2 м.
Вид битрейта                             : Постоянный
Битрейт                                  : 224 Кбит/сек
Каналы                                   : 2 канала
Channel layout                           : L R
Частота                                  : 48,0 КГц
Частота кадров                           : 31,250 кадров/сек (1536 SPF)
Метод сжатия                             : С потерями
Размер потока                            : 196 Мбайт (0%)
Заголовок                                : Commentary with Chad Stahelski & Keanu Reeves
Язык                                     : English
Service kind                             : Complete Main
Default                                  : Нет
Forced                                   : Нет
Текст #1
Идентификатор                            : 10
Формат                                   : UTF-8
Идентификатор кодека                     : S_TEXT/UTF8
Идентификатор кодека/Информация          : UTF-8 Plain Text
Продолжительность                        : 1 ч. 53 м.
Битрейт                                  : 0 бит/сек
Count of elements                        : 12
Размер потока                            : 743 байт (0%)
Заголовок                                : forced
Язык                                     : Russian
Default                                  : Да
Forced                                   : Нет
Текст #2
Идентификатор                            : 11
Формат                                   : UTF-8
Идентификатор кодека                     : S_TEXT/UTF8
Идентификатор кодека/Информация          : UTF-8 Plain Text
Продолжительность                        : 1 ч. 53 м.
Битрейт                                  : 37 бит/сек
Count of elements                        : 500
Размер потока                            : 30,9 Кбайт (0%)
Заголовок                                : А. Матвеев
Язык                                     : Russian
Default                                  : Нет
Forced                                   : Нет
Текст #3
Идентификатор                            : 12
Формат                                   : UTF-8
Идентификатор кодека                     : S_TEXT/UTF8
Идентификатор кодека/Информация          : UTF-8 Plain Text
Продолжительность                        : 1 ч. 49 м.
Битрейт                                  : 21 бит/сек
Count of elements                        : 669
Размер потока                            : 17,6 Кбайт (0%)
Заголовок                                : full
Язык                                     : English
Default                                  : Нет
Forced                                   : Нет
Текст #4
Идентификатор                            : 13
Формат                                   : UTF-8
Идентификатор кодека                     : S_TEXT/UTF8
Идентификатор кодека/Информация          : UTF-8 Plain Text
Продолжительность                        : 1 ч. 54 м.
Битрейт                                  : 26 бит/сек
Count of elements                        : 931
Размер потока                            : 22,5 Кбайт (0%)
Заголовок                                : SDH
Язык                                     : English
Default                                  : Нет
Forced                                   : Нет
Текст #5
Идентификатор                            : 14
Формат                                   : UTF-8
Идентификатор кодека                     : S_TEXT/UTF8
Идентификатор кодека/Информация          : UTF-8 Plain Text
Продолжительность                        : 1 ч. 54 м.
Битрейт                                  : 37 бит/сек
Count of elements                        : 929
Размер потока                            : 31,8 Кбайт (0%)
Заголовок                                : SDH-Colored
Язык                                     : English
Default                                  : Нет
Forced                                   : Нет
Меню
00:00:00.000                             : en:Chapter 1
00:06:31.682                             : en:Chapter 2
00:16:57.933                             : en:Chapter 3
00:26:35.594                             : en:Chapter 4
00:34:38.034                             : en:Chapter 5
00:42:07.816                             : en:Chapter 6
00:48:07.050                             : en:Chapter 7
00:56:41.648                             : en:Chapter 8
01:01:42.782                             : en:Chapter 9
01:10:27.681                             : en:Chapter 10
01:17:15.922                             : en:Chapter 11
01:24:22.640                             : en:Chapter 12
01:32:11.234                             : en:Chapter 13
01:40:01.328                             : en:Chapter 14
01:46:34.763                             : en:Chapter 15
01:54:01.042                             : en:Chapter 16

Скриншоты

[Цитировать]

Торрент-файл обновлен по просьбам ....добавлен АП перевод....
Приятного просмотра!!

[Цитировать]



Показать сообщения:    

Текущее время: 19-Окт 07:29

Часовой пояс: UTC + 6


Вы не можете начинать темы
Вы не можете отвечать на сообщения
Вы не можете редактировать свои сообщения
Вы не можете удалять свои сообщения
Вы не можете голосовать в опросах
Вы не можете прикреплять файлы к сообщениям
Вы не можете скачивать файлы

!ВНИМАНИЕ!
Сайт не предоставляет электронные версии произведений, а занимается лишь коллекционированием и каталогизацией ссылок, присылаемых и публикуемых на форуме нашими читателями. Если вы являетесь правообладателем какого-либо представленного материала и не желаете, чтобы ссылка на него находилась в нашем каталоге, свяжитесь с нами, и мы незамедлительно удалим ее. Файлы для обмена на трекере предоставлены пользователями сайта, и администрация не несет ответственности за их содержание. Просьба не заливать файлы, защищенные авторскими правами, а также файлы нелегального содержания!