***Уважаемые пользователи и гости !!! Сайт переехал на новый домен Torrents-club.info. Просьба изменить ваши закладки! ***
 
[ Сегодня идет свободное скачивание без начисления Download ]


Статистика раздачи
Нет
 
   
 
 
 
 
Паразиты / Gisaengchung (2019) [4K, HEVC, HDR / WEBRip] (2160p) Год выпуска: 2019
Жанр: Триллер, комедия, драма
Выпущено: Корея Южная, Barunson E&A, CJ E&M Film Financing & Investment Entertainment & Comics, CJ Entertainment
Режиссер: Чжун Хо Пон
Продолжительность: 02:12:00
Перевод: Дублированный, авторский
Субтитры: Русские, английские
возраст 18+

В ролях
: Кан Хо Сон, Сон Гён Ли, Ё Чжон Чо, У Шик Чхве, Со Дам Пак, Хе Джин Чан, Сын Мин Хён, Хён Джун Чон, Джон Ын Ли, Со Чжун Пак
О фильме: Обычное корейское семейство жизнь не балует. Приходится жить в сыром грязном полуподвале, воровать интернет у соседей и перебиваться случайными подработками. Однажды друг сына семейства, уезжая на стажировку за границу, предлагает тому заменить его и поработать репетитором у старшеклассницы в богатой семье Пак. Подделав диплом о высшем образовании, парень отправляется в шикарный дизайнерский особняк и производит на хозяйку дома хорошее впечатление. Тут же ему в голову приходит необычный план по трудоустройству сестры.
Паразиты — Русский трейлер (2019)
Техданные
Качество: WEBRip (2160p)
Видео: HEVC, 24.4 Мбит/с, 3840x1608
Аудио: Русский (AC3, 6 ch, 384 Кбит/с), (DTS-HD MA, 8 ch, 4752 Кбит/с), корейский (TrueHD, 8 ch, 4042 Кбит/с), английский (AC3, 6 ch, 640 Кбит/с)

Релиз

Звук:
* Dolby Digital Audio Russian 5.1 / 48 kHz / 384 kbps / DN -26dB (Дублированный iTunes)
* DTS-HD Master Audio Russian 7.1 / 48 kHz / 4752 kbps / 24-bit (DTS Core: 5.1 / 48 kHz / 1509 kbps / 24-bit) (VO Ю.Сербин)
* Dolby TrueHD/Atmos Audio Korean
Субтитры: Russian (Full-length: v1. FOCs, v.2 Kornikolay; Forced), English
Дополнительно: Сохранены оригинальные чаптеры.

MediaInfo:

Video
ID                          : 1
Format                      : HEVC
Format/Info                 : High Efficiency Video Coding
Format profile              : Main 10@L5.1@High
HDR format                  : SMPTE ST 2086, HDR10 compatible
Codec ID                    : V_MPEGH/ISO/HEVC
Duration                    : 2 h 11 min
Bit rate                    : 24.4 Mb/s
Width                       : 3 840 pixels
Height                      : 1 608 pixels
Display aspect ratio        : 2.40:1
Frame rate mode             : Constant
Frame rate                  : 23.976 (24000/1001) FPS
Color space                 : YUV
Chroma subsampling          : 4:2:0 (Type 2)
Bit depth                   : 10 bits
Bits/(Pixel*Frame)          : 0.165
Stream size                 : 22.5 GiB (71%)
Title                       : PARASITE_2019_WEBRip_2160p_HDR_BLUEBIRD
Writing library             : x265 3.2+31-6b348d5b56d8:[Windows][GCC 9.2.0][64 bit] 10bit
Encoding settings           : cpuid=1111039 / frame-threads=4 / numa-pools=28 / wpp / no-pmode / no-pme / no-psnr / no-ssim / log-level=2 / input-csp=1 / input-res=3840x1608 / interlace=0 / total-frames=189723 / level-idc=51 / high-tier=1 / uhd-bd=0 / ref=4 / no-allow-non-conformance / repeat-headers / annexb / aud / hrd / info / hash=0 / no-temporal-layers / no-open-gop / min-keyint=24 / keyint=240 / gop-lookahead=0 / bframes=4 / b-adapt=2 / b-pyramid / bframe-bias=0 / rc-lookahead=25 / lookahead-slices=4 / scenecut=40 / hist-scenecut=0 / radl=0 / no-splice / no-intra-refresh / ctu=64 / min-cu-size=8 / rect / no-amp / max-tu-size=32 / tu-inter-depth=1 / tu-intra-depth=1 / limit-tu=0 / rdoq-level=2 / dynamic-rd=0.00 / no-ssim-rd / signhide / no-tskip / nr-intra=0 / nr-inter=0 / no-constrained-intra / no-strong-intra-smoothing / max-merge=3 / limit-refs=3 / limit-modes / me=3 / subme=3 / merange=57 / temporal-mvp / no-frame-dup / no-hme / weightp / no-weightb / no-analyze-src-pics / deblock=-2:-2 / no-sao / no-sao-non-deblock / rd=4 / selective-sao=0 / no-early-skip / rskip / no-fast-intra / no-tskip-fast / no-cu-lossless / no-b-intra / no-splitrd-skip / rdpenalty=0 / psy-rd=2.00 / psy-rdoq=1.00 / no-rd-refine / no-lossless / cbqpoffs=0 / crqpoffs=0 / rc=crf / crf=17.0 / qcomp=0.60 / qpstep=4 / stats-write=0 / stats-read=0 / vbv-maxrate=160000 / vbv-bufsize=160000 / vbv-init=0.9 / crf-max=0.0 / crf-min=0.0 / ipratio=1.40 / pbratio=1.30 / aq-mode=2 / aq-strength=1.00 / cutree / zone-count=0 / no-strict-cbr / qg-size=32 / no-rc-grain / qpmax=69 / qpmin=0 / no-const-vbv / sar=0 / overscan=0 / videoformat=5 / range=0 / colorprim=9 / transfer=16 / colormatrix=9 / chromaloc=1 / chromaloc-top=2 / chromaloc-bottom=2 / display-window=0 / master-display=G(8500,39850)B(6550,2300)R(35400,14600)WP(15635,16450)L(10000000,50) / cll=1000,248 / min-luma=0 / max-luma=1023 / log2-max-poc-lsb=8 / vui-timing-info / vui-hrd-info / slices=1 / no-opt-qp-pps / no-opt-ref-list-length-pps / no-multi-pass-opt-rps / scenecut-bias=0.05 / hist-threshold=0.01 / no-opt-cu-delta-qp / no-aq-motion / hdr10 / hdr10-opt / no-dhdr10-opt / no-idr-recovery-sei / analysis-reuse-level=5 / scale-factor=0 / refine-intra=0 / refine-inter=0 / refine-mv=1 / refine-ctu-distortion=0 / no-limit-sao / ctu-info=0 / no-lowpass-dct / refine-analysis-type=0 / copy-pic=1 / max-ausize-factor=1.0 / no-dynamic-refine / no-single-sei / no-hevc-aq / no-svt / no-field / qp-adaptation-range=1.00 / no-scenecut-aware-qp
Default                     : Yes
Forced                      : No
Color range                 : Limited
Color primaries             : BT.2020
Transfer characteristics    : PQ
Matrix coefficients         : BT.2020 non-constant
Mastering display color pri : BT.2020
Mastering display luminance : min: 0.0050 cd/m2, max: 1000 cd/m2
Maximum Content Light Level : 1000 cd/m2
Maximum Frame-Average Light : 248 cd/m2
Audio #1
ID                          : 2
Format                      : AC-3
Format/Info                 : Audio Coding 3
Commercial name             : Dolby Digital
Codec ID                    : A_AC3
Duration                    : 2 h 11 min
Bit rate mode               : Constant
Bit rate                    : 384 kb/s
Channel(s)                  : 6 channels
Channel layout              : L R C LFE Ls Rs
Sampling rate               : 48.0 kHz
Frame rate                  : 31.250 FPS (1536 SPF)
Compression mode            : Lossy
Stream size                 : 362 MiB (1%)
Title                       : [DUB] DD 5.1 @ 384 kbps (iTunes)
Language                    : Russian
Service kind                : Complete Main
Default                     : No
Forced                      : No
Audio #2
ID                          : 3
Format                      : DTS XLL
Format/Info                 : Digital Theater Systems
Commercial name             : DTS-HD Master Audio
Codec ID                    : A_DTS
Duration                    : 2 h 12 min
Bit rate mode               : Variable
Bit rate                    : 4 752 kb/s
Channel(s)                  : 8 channels
Channel layout              : C L R LFE Lb Rb Lss Rss
Sampling rate               : 48.0 kHz
Frame rate                  : 93.750 FPS (512 SPF)
Bit depth                   : 24 bits
Compression mode            : Lossless
Stream size                 : 4.38 GiB (14%)
Title                       : [VO] DTS-HD MA 7.1 @ 4752 kbps (Y.Serbin)
Language                    : Russian
Default                     : No
Forced                      : No
Audio #3
ID                          : 4
Format                      : MLP FBA 16-ch
Format/Info                 : Meridian Lossless Packing FBA with 16-channel presentation
Commercial name             : Dolby TrueHD with Dolby Atmos
Codec ID                    : A_TRUEHD
Duration                    : 2 h 12 min
Bit rate mode               : Variable
Bit rate                    : 4 042 kb/s
Maximum bit rate            : 6 816 kb/s
Channel(s)                  : 8 channels
Channel layout              : L R C LFE Ls Rs Lb Rb
Sampling rate               : 48.0 kHz
Frame rate                  : 1 200.000 FPS (40 SPF)
Compression mode            : Lossless
Stream size                 : 3.73 GiB (12%)
Title                       : [ORIGINAL] TrueHD/Atmos
Language                    : Korean
Default                     : No
Forced                      : No
Number of dynamic objects   : 11
Bed channel count           : 1 channel
Bed channel configuration   : LFE
Audio #4
ID                          : 5
Format                      : AC-3
Format/Info                 : Audio Coding 3
Commercial name             : Dolby Digital
Codec ID                    : A_AC3
Duration                    : 2 h 12 min
Bit rate mode               : Constant
Bit rate                    : 640 kb/s
Channel(s)                  : 6 channels
Channel layout              : L R C LFE Ls Rs
Sampling rate               : 48.0 kHz
Frame rate                  : 31.250 FPS (1536 SPF)
Compression mode            : Lossy
Stream size                 : 604 MiB (2%)
Title                       : Atmos Core
Language                    : English
Service kind                : Complete Main
Default                     : No
Forced                      : No
Text #1
ID                          : 6
Format                      : PGS
Codec ID                    : S_HDMV/PGS
Codec ID/Info               : Picture based subtitle format used on BDs/HD-DVDs
Duration                    : 2 h 5 min
Bit rate                    : 38.1 kb/s
Count of elements           : 3274
Stream size                 : 34.2 MiB (0%)
Title                       : Full-length (FOCs)
Language                    : Russian
Default                     : No
Forced                      : No
Text #2
ID                          : 7
Format                      : PGS
Codec ID                    : S_HDMV/PGS
Codec ID/Info               : Picture based subtitle format used on BDs/HD-DVDs
Duration                    : 2 h 5 min
Bit rate                    : 39.7 kb/s
Count of elements           : 3272
Stream size                 : 35.6 MiB (0%)
Title                       : Full-length (Kornikolay)
Language                    : Russian
Default                     : No
Forced                      : No
Text #3
ID                          : 8
Format                      : PGS
Codec ID                    : S_HDMV/PGS
Codec ID/Info               : Picture based subtitle format used on BDs/HD-DVDs
Duration                    : 2 h 5 min
Bit rate                    : 38.9 kb/s
Count of elements           : 3294
Stream size                 : 34.9 MiB (0%)
Title                       : Full-length
Language                    : English
Default                     : No
Forced                      : No
Text #4
ID                          : 9
Format                      : PGS
Codec ID                    : S_HDMV/PGS
Codec ID/Info               : Picture based subtitle format used on BDs/HD-DVDs
Duration                    : 1 h 51 min
Bit rate                    : 294 b/s
Count of elements           : 12
Stream size                 : 239 KiB (0%)
Title                       : Forced
Language                    : Russian
Default                     : Yes
Forced                      : No
Menu
00:00:00.000                : :Chapitre 01
00:05:44.803                : :Chapitre 02
00:12:16.611                : :Chapitre 03
00:20:35.484                : :Chapitre 04
00:29:21.927                : :Chapitre 05
00:37:05.348                : :Chapitre 06
00:46:19.944                : :Chapitre 07
00:53:52.980                : :Chapitre 08
01:02:55.647                : :Chapitre 09
01:12:10.243                : :Chapitre 10
01:23:25.834                : :Chapitre 11
01:32:19.659                : :Chapitre 12
01:41:22.285                : :Chapitre 13
01:48:21.912                : :Chapitre 14
01:56:07.502                : :Chapitre 15
02:07:06.744                : :Chapitre 16

Скриншоты

[Цитировать]



Показать сообщения:    

Текущее время: 05-Июл 20:35

Часовой пояс: UTC + 6


Вы не можете начинать темы
Вы не можете отвечать на сообщения
Вы не можете редактировать свои сообщения
Вы не можете удалять свои сообщения
Вы не можете голосовать в опросах
Вы не можете прикреплять файлы к сообщениям
Вы не можете скачивать файлы

!ВНИМАНИЕ!
Сайт не предоставляет электронные версии произведений, а занимается лишь коллекционированием и каталогизацией ссылок, присылаемых и публикуемых на форуме нашими читателями. Если вы являетесь правообладателем какого-либо представленного материала и не желаете, чтобы ссылка на него находилась в нашем каталоге, свяжитесь с нами, и мы незамедлительно удалим ее. Файлы для обмена на трекере предоставлены пользователями сайта, и администрация не несет ответственности за их содержание. Просьба не заливать файлы, защищенные авторскими правами, а также файлы нелегального содержания!