***Уважаемые пользователи и гости !!! Сайт переехал на новый домен Torrents-club.info. Просьба изменить ваши закладки! ***
 
[ Сегодня идет свободное скачивание без начисления Download ]


Статистика раздачи
Скачал: [ 1 ]
 
   
 
 
 
 
Солдаты Фортуны / Men Of War (1994) BDRip 720p | 60 fps Год выпуска: 1994
Страна: США
Жанр: боевик, приключения
Продолжительность: 01:42:46
Перевод: Профессиональный (многоголосый закадровый) Екатеринбург Арт
Режиссер: Перри Лэнг
Бюджет: $6 000 000
Премьера в мире: 3 сентября 1994

В ролях:
Дольф Лундгрен, Шарлотта Льюис, Б.Д. Вонг, Энтони Джон Дэнисон, Тим Гини, Дон Харви, Том ’Тайни’ Листер мл., Том Райт,
Кэтрин Белл, Тревор Годдар
Описание:
Профессиональный наемник в компании пятерых таких же, как он, солдат удачи, высаживается на остров в Тихом океане, чтобы силой «убедить» его жителей подписать контракт на разработку минералов. Внезапно он осознает, что воюет не на той стороне и становится защитником тех, кого изначально должен был убить…
Качество: BDRip 720p / 60 FPS
Формат: MKV
Видео кодек: H.264
Аудио кодек: AC3
Видео: x264, 1280 x 568 ( 2,25:1 ), 4027 kbps, 60,000 fps, ( 0.092 bpp)
Аудио#1: Русский, AC-3, 48.0 KHz, 2 ch, 192 Kbps MVO (Екатеринбург Арт)

MediaInfo:

x264 [info]: frame I:1767 Avg QP:18.18 size: 61397
x264 [info]: frame P:82486 Avg QP:19.41 size: 22366
x264 [info]: frame B:285368 Avg QP:21.62 size: 4022
x264 [info]: consecutive B-frames: 1.2% 2.4% 6.1% 17.0% 55.7% 17.5%
Общее
Уникальный идентификатор : 233614168186069527620122405786376903546 (0xAFC073C300E305A080A4BE6BAE029B7A)
Полное имя : F:\Men.Of.War.(1994).BDRip.720p.(60 Fps).mkv
Формат : Matroska
Версия формата : Version 4
Размер файла : 3,03 Гбайт
Продолжительность : 1 ч. 42 м.
Общий поток : 4223 Кбит/сек
Название фильма : Солдаты Фортуны / Men Of War (1994) BDRip 720p (60 Fps) | Расширенная версия
Дата кодирования : UTC 2020-06-26 16:17:51
Программа кодирования : mkvmerge v12.0.0 ('Trust / Lust') 64bit
Библиотека кодирования : libebml v1.3.4 + libmatroska v1.4.5
Видео
Идентификатор : 1
Формат : AVC
Формат/Информация : Advanced Video Codec
Профиль формата : High@L4.1
Настройки формата : CABAC / 8 Ref Frames
Параметр CABAC формата : Да
Параметр RefFrames формата : 8 кадров
Идентификатор кодека : V_MPEG4/ISO/AVC
Продолжительность : 1 ч. 42 м.
Битрейт : 4027 Кбит/сек
Ширина : 1280 пикселей
Высота : 568 пикселей
Соотношение сторон : 2,25:1
Режим частоты кадров : Постоянный
Частота кадров : 60,000 кадров/сек
Цветовое пространство : YUV
Субдискретизация насыщенности : 4:2:0
Битовая глубина : 8 бит
Тип развёртки : Прогрессивная
Бит/(Пиксели*Кадры) : 0.092
Размер потока : 2,89 Гбайт (95%)
Заголовок : slaventi-69 ( R.G. HD-Films | 60 fps )
Библиотека кодирования : x264 core 130 r2273 b3065e6
Настройки программы : cabac=1 / ref=8 / deblock=1:0:0 / analyse=0x3:0x113 / me=umh / subme=9 / psy=1 / psy_rd=1.00:0.00 / mixed_ref=1 / me_range=28 / chroma_me=1 / trellis=2 / 8x8dct=1 / cqm=0 / deadzone=21,11 / fast_pskip=0 / chroma_qp_offset=-2 / threads=4 / lookahead_threads=2 / sliced_threads=0 / nr=0 / decimate=1 / interlaced=0 / bluray_compat=0 / constrained_intra=0 / bframes=5 / b_pyramid=2 / b_adapt=2 / b_bias=0 / direct=3 / weightb=1 / open_gop=0 / weightp=2 / keyint=600 / keyint_min=23 / scenecut=40 / intra_refresh=0 / rc=crf / mbtree=0 / crf=17.5 / qcomp=0.60 / qpmin=0 / qpmax=69 / qpstep=4 / ip_ratio=1.40 / pb_ratio=1.30 / aq=1:1.00
Язык : English
Default : Да
Forced : Нет
Аудио
Идентификатор : 2
Формат : AC-3
Формат/Информация : Audio Coding 3
Коммерческое название : Dolby Digital
Идентификатор кодека : A_AC3
Продолжительность : 1 ч. 42 м.
Вид битрейта : Постоянный
Битрейт : 192 Кбит/сек
Каналы : 2 канала
Channel layout : L R
Частота : 48,0 КГц
Частота кадров : 31,250 кадров/сек (1536 SPF)
Битовая глубина : 16 бит
Метод сжатия : С потерями
Размер потока : 141 Мбайт (5%)
Заголовок : MVO (Екатеринбург Арт)
Язык : Russian
ServiceKind/String : Complete Main
Default : Да
Forced : Нет
Меню
00:00:00.000 : en:Chapter 01
00:00:00.959 : en:Chapter 02
00:14:33.622 : en:Chapter 03
00:30:12.352 : en:Chapter 04
00:44:00.929 : en:Chapter 05
00:59:22.016 : en:Chapter 06
01:14:47.941 : en:Chapter 07
01:28:48.031 : en:Chapter 08
01:39:15.824 : en:Chapter 09

[Цитировать]



Показать сообщения:    

Текущее время: 13-Июл 10:21

Часовой пояс: UTC + 6


Вы не можете начинать темы
Вы не можете отвечать на сообщения
Вы не можете редактировать свои сообщения
Вы не можете удалять свои сообщения
Вы не можете голосовать в опросах
Вы не можете прикреплять файлы к сообщениям
Вы не можете скачивать файлы

!ВНИМАНИЕ!
Сайт не предоставляет электронные версии произведений, а занимается лишь коллекционированием и каталогизацией ссылок, присылаемых и публикуемых на форуме нашими читателями. Если вы являетесь правообладателем какого-либо представленного материала и не желаете, чтобы ссылка на него находилась в нашем каталоге, свяжитесь с нами, и мы незамедлительно удалим ее. Файлы для обмена на трекере предоставлены пользователями сайта, и администрация не несет ответственности за их содержание. Просьба не заливать файлы, защищенные авторскими правами, а также файлы нелегального содержания!