***Уважаемые пользователи и гости !!! Сайт переехал на новый домен Torrents-club.info. Просьба изменить ваши закладки! ***
 
[ Сегодня идет свободное скачивание без начисления Download ]


Статистика раздачи
Нет
 
   
 
 
 
 
Тролли (Мировой тур) / Trolls World Tour (2020) [4K, HEVC, HDR / BDRip] (2160p) Год выпуска: 2020
Жанр: Мультфильм, мюзикл, фэнтези, комедия, приключения, семейный, полнометражный
Выпущено: США, DreamWorks Animation
Режиссер: Уолт Дорн, Дэвид П. Смит
Продолжительность: 01:30:43
Перевод: Дублированный
Субтитры: Русские, английские
возраст 6+
В ролях: Джастин Тимберлейк, Анна Кендрик, Джеймс Корден, Оззи Осборн, Рэйчел Блум, Андерсон Паак, Джордж Клинтон, Мэри Джей Блайдж, Келли Кларксон, Рон Фанчес
О фильме: Поп-тролли в шоке - оказывается, мир музыки гораздо больше, чем они думали. Рейвы, оупен-эйры, классические концерты и, конечно, хип-хоп баттлы - впереди их ждет головокружительное веселье. Но неудержимая королева Рокс планирует уничтожить все... чтобы миром безоговорочно правил хард-рок! Розочка, Цветан и их новые друзья отправляются в невероятное путешествие: им предстоит объединить всех троллей и помешать Рокс.
Тролли 2. Мировой тур - Русский трейлер (4K ULTRA HD) | Мультфильм 2020
Техданные
Качество: BDRip (2160p)
Видео: HEVC, 10.3 Мбит/с, 3840x1634, 23.976 кадр/с, 10 бит
Аудио: Русский (AC3, 6 ch, 640 Кбит/с), английский (TrueHD, 8 ch, 3173 Кбит/с), (AC3, 6 ch, 448 Кбит/с)

Релиз

Мастер 5
Видеоряд от SWTYBLZ
Формат: Main 10@L5.1@High_x265_HDR10
Цветовой праймериз: BT.2020
Характеристики передачи: PQ
Матричные коэффициенты: BT.2020
Освоение основных цветов дисплея: Дисплей P3
Освоение яркости дисплея: min: 0.0010 cd/m2, max: 1000 cd/m2
Аудио: 48 kHz, AC3, 5.1, 640 Kbps | Дублированный | Лицензия | RUS |
Аудио: 48 kHz, TrueHD, 5.1, 3173 Kbps | Оригинал | ENG |
Аудио: 48 kHz, AC3, 5.1, 448 Kbps | Оригинал | ENG
Субтитры: Русские (Forced, full), английские

MediaInfo:

Общее
Уникальный идентификатор                 : 240626684837030416078157112450780503792 (0xB5070386BBE327E68B70EF8A35081EF0)
Полное имя                               : D:\Передел\Trolls.World.Tour.2020.2160p.BDRip.x265.10bit.HDR.Master5.mkv
Формат                                   : Matroska
Версия формата                           : Version 4
Размер файла                             : 9,28 Гбайт
Продолжительность                        : 1 ч. 30 м.
Режим общего битрейта                    : Переменный
Общий поток                              : 14,6 Мбит/сек
Название фильма                          : Trolls.World.Tour.2020.2160p.BDRip.x265.10bit.HDR.Master5
Дата кодирования                         : UTC 2020-07-31 15:15:08
Программа кодирования                    : mkvmerge v7.9.0 ('Birds') 64bit
Библиотека кодирования                   : libebml v1.3.1 + libmatroska v1.4.2
Обложка                                  : Yes
Attachments                              : small_cover.jpg / small_cover_land.jpg / cover.jpg / cover_land.jpg
Видео
Идентификатор                            : 1
Формат                                   : HEVC
Формат/Информация                        : High Efficiency Video Coding
Коммерческое название                    : HDR10
Профиль формата                          : Main 10@L5.1@High
Идентификатор кодека                     : V_MPEGH/ISO/HEVC
Продолжительность                        : 1 ч. 30 м.
Битрейт                                  : 10,3 Мбит/сек
Ширина                                   : 3840 пикселей
Высота                                   : 1634 пикселя
Соотношение сторон                       : 2,35:1
Режим частоты кадров                     : Постоянный
Частота кадров                           : 23,976 (24000/1001) кадра/сек
Цветовое пространство                    : YUV
Субдискретизация насыщенности            : 4:2:0 (Type 2)
Битовая глубина                          : 10 бит
Бит/(Пиксели*Кадры)                      : 0.069
Размер потока                            : 6,54 Гбайт (70%)
Заголовок                                : Trolls.World.Tour.2020.2160p.BDRip.x265.10bit.HDR.Master5
Библиотека кодирования                   : x265 3.0_Au+10-74a8672ea4f7:[Windows][GCC 8.2.1][64 bit] 10bit
Настройки программы                      : cpuid=1111039 / frame-threads=6 / numa-pools=24,24,24,24 / wpp / no-pmode / no-pme / no-psnr / no-ssim / log-level=2 / input-csp=1 / input-res=3840x1634 / interlace=0 / total-frames=0 / level-idc=51 / high-tier=1 / uhd-bd=0 / ref=3 / no-allow-non-conformance / repeat-headers / annexb / aud / hrd / info / hash=0 / no-temporal-layers / no-open-gop / min-keyint=1 / keyint=24 / gop-lookahead=0 / bframes=6 / b-adapt=2 / b-pyramid / bframe-bias=0 / rc-lookahead=25 / lookahead-slices=4 / scenecut=40 / radl=0 / no-splice / no-intra-refresh / ctu=64 / min-cu-size=8 / no-rect / no-amp / max-tu-size=32 / tu-inter-depth=1 / tu-intra-depth=1 / limit-tu=0 / rdoq-level=0 / dynamic-rd=0.00 / no-ssim-rd / signhide / no-tskip / nr-intra=0 / nr-inter=0 / no-constrained-intra / strong-intra-smoothing / max-merge=2 / limit-refs=3 / no-limit-modes / me=1 / subme=2 / merange=57 / temporal-mvp / weightp / no-weightb / no-analyze-src-pics / deblock=1:1 / no-sao / no-sao-non-deblock / rd=3 / no-early-skip / rskip / no-fast-intra / no-tskip-fast / no-cu-lossless / no-b-intra / no-splitrd-skip / rdpenalty=0 / psy-rd=0.40 / psy-rdoq=0.00 / no-rd-refine / no-lossless / cbqpoffs=0 / crqpoffs=0 / rc=crf / crf=13.0 / qcomp=0.60 / qpstep=4 / stats-write=0 / stats-read=0 / vbv-maxrate=160000 / vbv-bufsize=160000 / vbv-init=0.9 / crf-max=0.0 / crf-min=0.0 / ipratio=1.40 / pbratio=1.30 / aq-mode=1 / aq-strength=0.40 / cutree / zone-count=0 / no-strict-cbr / qg-size=32 / no-rc-grain / qpmax=69 / qpmin=0 / no-const-vbv / sar=1 / overscan=0 / videoformat=5 / range=0 / colorprim=9 / transfer=16 / colormatrix=9 / chromaloc=1 / chromaloc-top=2 / chromaloc-bottom=2 / display-window=0 / master-display=G(13250,34500)B(7500,3000)R(34000,16000)WP(15635,16450)L(10000000,10) / max-cll=1000,462 / min-luma=0 / max-luma=1023 / log2-max-poc-lsb=8 / vui-timing-info / vui-hrd-info / slices=1 / opt-qp-pps / opt-ref-list-length-pps / no-multi-pass-opt-rps / scenecut-bias=0.05 / no-opt-cu-delta-qp / no-aq-motion / hdr / hdr-opt / no-dhdr10-opt / no-idr-recovery-sei / analysis-reuse-level=5 / scale-factor=0 / refine-intra=0 / refine-inter=0 / refine-mv=0 / refine-ctu-distortion=0 / no-limit-sao / ctu-info=0 / no-lowpass-dct / refine-analysis-type=0 / copy-pic=1 / max-ausize-factor=1.0 / no-dynamic-refine / no-single-sei / no-hevc-aq / no-svt / qp-adaptation-range=1.00
Default                                  : Да
Forced                                   : Нет
Цветовой диапазон                        : Limited
Основные цвета                           : BT.2020
Характеристики трансфера                 : PQ
Коэффициенты матрицы                     : BT.2020 non-constant
MasteringDisplay_ColorPrimaries          : Display P3
MasteringDisplay_Luminance               : min: 0.0010 cd/m2, max: 1000 cd/m2
MaxCLL                                   : 1000 cd/m2
MaxFALL                                  : 462 cd/m2
Аудио #1
Идентификатор                            : 2
Формат                                   : AC-3
Формат/Информация                        : Audio Coding 3
Коммерческое название                    : Dolby Digital
Идентификатор кодека                     : A_AC3
Продолжительность                        : 1 ч. 30 м.
Вид битрейта                             : Постоянный
Битрейт                                  : 640 Кбит/сек
Каналы                                   : 6 каналов
Channel layout                           : L R C LFE Ls Rs
Частота                                  : 48,0 КГц
Частота кадров                           : 31,250 кадров/сек (1536 SPF)
Битовая глубина                          : 16 бит
Метод сжатия                             : С потерями
Размер потока                            : 415 Мбайт (4%)
Заголовок                                : Dub License
Язык                                     : Russian
ServiceKind/String                       : Complete Main
Default                                  : Да
Forced                                   : Да
Аудио #2
Идентификатор                            : 3
Формат                                   : MLP FBA 16-ch
Формат/Информация                        : Meridian Lossless Packing FBA with 16-channel presentation
Коммерческое название                    : Dolby TrueHD with Dolby Atmos
Идентификатор кодека                     : A_TRUEHD
Продолжительность                        : 1 ч. 30 м.
Вид битрейта                             : Переменный
Битрейт                                  : 3173 Кбит/сек
Максимальный битрейт                     : 5049 Кбит/сек
Каналы                                   : 8 каналов
Channel layout                           : L R C LFE Ls Rs Lb Rb
Частота                                  : 48,0 КГц
Частота кадров                           : 1200,000 кадров/сек (40 SPF)
Метод сжатия                             : Без потерь
Размер потока                            : 2,01 Гбайт (22%)
Язык                                     : English
Default                                  : Нет
Forced                                   : Нет
Number of dynamic objects                : 11
Bed channel count                        : 1 канал
Bed channel configuration                : LFE
Аудио #3
Идентификатор                            : 4
Формат                                   : AC-3
Формат/Информация                        : Audio Coding 3
Коммерческое название                    : Dolby Digital
Идентификатор кодека                     : A_AC3
Продолжительность                        : 1 ч. 30 м.
Вид битрейта                             : Постоянный
Битрейт                                  : 448 Кбит/сек
Каналы                                   : 6 каналов
Channel layout                           : L R C LFE Ls Rs
Частота                                  : 48,0 КГц
Частота кадров                           : 31,250 кадров/сек (1536 SPF)
Битовая глубина                          : 16 бит
Метод сжатия                             : С потерями
Размер потока                            : 291 Мбайт (3%)
Язык                                     : English
ServiceKind/String                       : Complete Main
Default                                  : Нет
Forced                                   : Нет
Текст #1
Идентификатор                            : 5
Формат                                   : UTF-8
Идентификатор кодека                     : S_TEXT/UTF8
Идентификатор кодека/Информация          : UTF-8 Plain Text
Продолжительность                        : 1 ч. 29 м.
Битрейт                                  : 0 бит/сек
ElementCount                             : 14
Размер потока                            : 507 байт (0%)
Заголовок                                : Forced
Язык                                     : Russian
Default                                  : Да
Forced                                   : Да
Текст #2
Идентификатор                            : 6
Формат                                   : UTF-8
Идентификатор кодека                     : S_TEXT/UTF8
Идентификатор кодека/Информация          : UTF-8 Plain Text
Продолжительность                        : 1 ч. 23 м.
Битрейт                                  : 97 бит/сек
ElementCount                             : 1265
Размер потока                            : 59,6 Кбайт (0%)
Заголовок                                : Full
Язык                                     : Russian
Default                                  : Нет
Forced                                   : Нет
Текст #3
Идентификатор                            : 7
Формат                                   : UTF-8
Идентификатор кодека                     : S_TEXT/UTF8
Идентификатор кодека/Информация          : UTF-8 Plain Text
Продолжительность                        : 1 ч. 30 м.
Битрейт                                  : 93 бит/сек
ElementCount                             : 2109
Размер потока                            : 61,5 Кбайт (0%)
Заголовок                                : SDH
Язык                                     : English
Default                                  : Нет
Forced                                   : Нет
Меню
00:00:00.000                             : en:Chapter 01
00:05:12.771                             : en:Chapter 02
00:08:44.899                             : en:Chapter 03
00:12:51.729                             : en:Chapter 04
00:18:25.813                             : en:Chapter 05
00:22:58.836                             : en:Chapter 06
00:27:36.405                             : en:Chapter 07
00:30:34.583                             : en:Chapter 08
00:34:23.353                             : en:Chapter 09
00:38:27.138                             : en:Chapter 10
00:41:13.096                             : en:Chapter 11
00:46:19.276                             : en:Chapter 12
00:50:12.426                             : en:Chapter 13
00:54:22.926                             : en:Chapter 14
00:59:22.726                             : en:Chapter 15
01:03:39.274                             : en:Chapter 16
01:06:25.523                             : en:Chapter 17
01:10:18.297                             : en:Chapter 18
01:15:41.829                             : en:Chapter 19
01:21:19.917                             : en:Chapter 20

Скриншоты

[Цитировать]

Релиз обновлён - Замена на лицензию.

[Цитировать]



Показать сообщения:    

Текущее время: 14-Авг 06:51

Часовой пояс: UTC + 6


Вы не можете начинать темы
Вы не можете отвечать на сообщения
Вы не можете редактировать свои сообщения
Вы не можете удалять свои сообщения
Вы не можете голосовать в опросах
Вы не можете прикреплять файлы к сообщениям
Вы не можете скачивать файлы

!ВНИМАНИЕ!
Сайт не предоставляет электронные версии произведений, а занимается лишь коллекционированием и каталогизацией ссылок, присылаемых и публикуемых на форуме нашими читателями. Если вы являетесь правообладателем какого-либо представленного материала и не желаете, чтобы ссылка на него находилась в нашем каталоге, свяжитесь с нами, и мы незамедлительно удалим ее. Файлы для обмена на трекере предоставлены пользователями сайта, и администрация не несет ответственности за их содержание. Просьба не заливать файлы, защищенные авторскими правами, а также файлы нелегального содержания!