***Уважаемые пользователи и гости !!! Сайт переехал на новый домен Torrents-club.info. Просьба изменить ваши закладки! ***
 
[ Сегодня идет свободное скачивание без начисления Download ]


Статистика раздачи
Нет
 
   
 
 
 
 
Человек-паук: Возвращение домой / Spider-Man: Homecoming (2017) BDRip 720p | 60 fps Год выпуска: 2017
Страна: США
Жанр: Фантастика, боевик, приключения
Продолжительность: 02:13:28
Перевод: Дубляж
Субтитры: русские, форсированные
Режиссер: Джон Уоттс
Бюджет: $175 000 000
Премьера в мире: 28 июня 2017

В ролях:
Том Холланд (II), Роберт Дауни мл., Майкл Китон, Мариса Томей, Джон Фавро, Джейкоб Баталон, Зендея, Лора Хэрриер, Тони Револори, Дональд Гловер
Описание:
После исторической встречи с командой Мстителей Питер Паркер возвращается домой, стараясь зажить обычной жизнью под опекой своей тёти Мэй. Но теперь за Питером приглядывает ещё кое-что… Тони Старк видел Человека-Паука в деле и должен стать его наставником. Когда новый злодей Стервятник угрожает уничтожить всё, что дорого Питеру, приходит время доказать всем, что такое настоящий супергерой.
Качество: BDRip 720p / 60 FPS
Формат: MKV
Видео кодек: H.264
Аудио кодек: AC3
Видео: x264, 1280 x 536 ( 2,40:1 ), 3996 kbps, 60,000 fps, ( 0.097 bpp)
Аудио#1: Русский, AC-3, 48.0 KHz, 6 ch, 384 Kbps Dub

MediaInfo:

x264 [info]: frame I:2495 Avg QP:15.79 size: 70716
x264 [info]: frame P:111236 Avg QP:16.72 size: 18200
x264 [info]: frame B:366267 Avg QP:19.67 size: 4900
x264 [info]: consecutive B-frames: 2.2% 2.3% 6.9% 12.3% 66.7% 9.5%
Общее
Уникальный идентификатор : 269478879869224381407113795812657035388 (0xCABBBE91C908C83A3DB00645EA75787C)
Полное имя : G:\Spider.Man.Homecoming.(2017).BDRip.720p.(60 Fps).mkv
Формат : Matroska
Версия формата : Version 4
Размер файла : 4,08 Гбайт
Продолжительность : 2 ч. 13 м.
Общий поток : 4379 Кбит/сек
Название фильма : Человек-паук: Возвращение домой / Spider-Man: Homecoming (2017) BDRip 720p (60 Fps)
Дата кодирования : UTC 2020-07-20 10:59:19
Программа кодирования : mkvmerge v35.0.0 ('All The Love In The World') 64-bit
Библиотека кодирования : libebml v1.3.9 + libmatroska v1.5.2
Видео
Идентификатор : 1
Формат : AVC
Формат/Информация : Advanced Video Codec
Профиль формата : High@L4.1
Настройки формата : CABAC / 9 Ref Frames
Параметр CABAC формата : Да
Параметр RefFrames формата : 9 кадров
Идентификатор кодека : V_MPEG4/ISO/AVC
Продолжительность : 2 ч. 13 м.
Битрейт : 3996 Кбит/сек
Ширина : 1280 пикселей
Высота : 536 пикселей
Соотношение сторон : 2,40:1
Режим частоты кадров : Постоянный
Частота кадров : 60,000 кадров/сек
Цветовое пространство : YUV
Субдискретизация насыщенности : 4:2:0
Битовая глубина : 8 бит
Тип развёртки : Прогрессивная
Бит/(Пиксели*Кадры) : 0.097
Размер потока : 3,72 Гбайт (91%)
Заголовок : slaventi-69 ( R.G. HD-Films | 60 fps )
Библиотека кодирования : x264 core 130 r2273 b3065e6
Настройки программы : cabac=1 / ref=9 / deblock=1:-1:-1 / analyse=0x3:0x133 / me=umh / subme=9 / psy=1 / psy_rd=1.00:0.00 / mixed_ref=1 / me_range=32 / chroma_me=1 / trellis=2 / 8x8dct=1 / cqm=0 / deadzone=21,11 / fast_pskip=0 / chroma_qp_offset=-2 / threads=10 / lookahead_threads=2 / sliced_threads=0 / nr=0 / decimate=1 / interlaced=0 / bluray_compat=0 / constrained_intra=0 / bframes=5 / b_pyramid=2 / b_adapt=2 / b_bias=0 / direct=1 / weightb=1 / open_gop=0 / weightp=2 / keyint=600 / keyint_min=23 / scenecut=40 / intra_refresh=0 / rc=crf / mbtree=0 / crf=16.8 / qcomp=0.60 / qpmin=0 / qpmax=69 / qpstep=4 / ip_ratio=1.40 / pb_ratio=1.30 / aq=1:1.00
Язык : English
Default : Да
Forced : Нет
Аудио
Идентификатор : 2
Формат : AC-3
Формат/Информация : Audio Coding 3
Коммерческое название : Dolby Digital
Идентификатор кодека : A_AC3
Продолжительность : 2 ч. 13 м.
Вид битрейта : Постоянный
Битрейт : 384 Кбит/сек
Каналы : 6 каналов
Channel layout : L R C LFE Ls Rs
Частота : 48,0 КГц
Частота кадров : 31,250 кадров/сек (1536 SPF)
Битовая глубина : 16 бит
Метод сжатия : С потерями
Размер потока : 366 Мбайт (9%)
Заголовок : Dub
Язык : Russian
ServiceKind/String : Complete Main
Default : Да
Forced : Нет
Текст
Идентификатор : 3
Формат : UTF-8
Идентификатор кодека : S_TEXT/UTF8
Идентификатор кодека/Информация : UTF-8 Plain Text
Продолжительность : 2 ч. 9 м.
Битрейт : 1 бит/сек
ElementCount : 39
Размер потока : 1,82 Кбайт (0%)
Заголовок : русские, форсированные
Язык : Russian
Default : Да
Forced : Нет
Меню
00:00:00.000 : en:00:00:00.000
00:00:48.799 : en:00:00:48.799
00:01:28.046 : en:00:01:28.046
00:02:03.165 : en:00:02:03.165
00:02:26.646 : en:00:02:26.646
00:05:35.001 : en:00:05:35.001
00:06:03.446 : en:00:06:03.446
00:06:29.306 : en:00:06:29.306
00:08:58.121 : en:00:08:58.121
00:10:57.699 : en:00:10:57.699
00:12:25.870 : en:00:12:25.870
00:13:49.120 : en:00:13:49.120
00:17:48.109 : en:00:17:48.109
00:20:50.749 : en:00:20:50.749
00:21:22.072 : en:00:21:22.072
00:22:00.986 : en:00:22:00.986
00:24:23.587 : en:00:24:23.587
00:25:52.134 : en:00:25:52.134
00:26:44.520 : en:00:26:44.520
00:28:12.941 : en:00:28:12.941
00:29:11.708 : en:00:29:11.708
00:32:25.277 : en:00:32:25.277
00:33:03.231 : en:00:33:03.231
00:34:14.344 : en:00:34:14.344
00:34:35.198 : en:00:34:35.198
00:37:10.895 : en:00:37:10.895
00:38:13.833 : en:00:38:13.833
00:40:53.242 : en:00:40:53.242
00:41:52.218 : en:00:41:52.218
00:45:03.034 : en:00:45:03.034
00:46:25.324 : en:00:46:25.324
00:48:24.485 : en:00:48:24.485
00:51:06.313 : en:00:51:06.313
00:52:41.367 : en:00:52:41.367
00:55:30.285 : en:00:55:30.285
00:58:41.560 : en:00:58:41.560
00:59:33.612 : en:00:59:33.612
01:00:02.390 : en:01:00:02.390
01:00:15.445 : en:01:00:15.445
01:00:29.793 : en:01:00:29.793
01:00:56.236 : en:01:00:56.236
01:01:19.342 : en:01:01:19.342
01:03:25.552 : en:01:03:25.552
01:05:08.279 : en:01:05:08.279
01:06:21.978 : en:01:06:21.978
01:06:47.086 : en:01:06:47.086
01:07:23.289 : en:01:07:23.289
01:10:11.040 : en:01:10:11.040
01:11:20.776 : en:01:11:20.776
01:12:53.286 : en:01:12:53.286
01:14:51.987 : en:01:14:51.987
01:15:45.833 : en:01:15:45.833
01:16:56.320 : en:01:16:56.320
01:18:42.092 : en:01:18:42.092
01:19:12.247 : en:01:19:12.247
01:20:22.234 : en:01:20:22.234
01:21:00.731 : en:01:21:00.731
01:23:33.759 : en:01:23:33.759
01:27:21.319 : en:01:27:21.319
01:28:49.950 : en:01:28:49.950
01:32:38.219 : en:01:32:38.219
01:33:23.723 : en:01:33:23.723
01:34:00.093 : en:01:34:00.093
01:35:21.007 : en:01:35:21.007
01:36:48.886 : en:01:36:48.886
01:38:46.295 : en:01:38:46.295
01:40:48.000 : en:01:40:48.000
01:42:08.122 : en:01:42:08.122
01:43:39.839 : en:01:43:39.839
01:45:07.051 : en:01:45:07.051
01:46:23.836 : en:01:46:23.836
01:47:19.183 : en:01:47:19.183
01:48:07.523 : en:01:48:07.523
01:49:07.207 : en:01:49:07.207
01:50:14.733 : en:01:50:14.733
01:52:24.655 : en:01:52:24.655
01:54:01.251 : en:01:54:01.251
01:56:02.038 : en:01:56:02.038
01:58:04.077 : en:01:58:04.077
01:59:28.870 : en:01:59:28.870
02:00:14.624 : en:02:00:14.624
02:01:11.973 : en:02:01:11.973
02:02:21.918 : en:02:02:21.918

[Цитировать]



Показать сообщения:    

Текущее время: 13-Авг 15:04

Часовой пояс: UTC + 6


Вы не можете начинать темы
Вы не можете отвечать на сообщения
Вы не можете редактировать свои сообщения
Вы не можете удалять свои сообщения
Вы не можете голосовать в опросах
Вы не можете прикреплять файлы к сообщениям
Вы не можете скачивать файлы

!ВНИМАНИЕ!
Сайт не предоставляет электронные версии произведений, а занимается лишь коллекционированием и каталогизацией ссылок, присылаемых и публикуемых на форуме нашими читателями. Если вы являетесь правообладателем какого-либо представленного материала и не желаете, чтобы ссылка на него находилась в нашем каталоге, свяжитесь с нами, и мы незамедлительно удалим ее. Файлы для обмена на трекере предоставлены пользователями сайта, и администрация не несет ответственности за их содержание. Просьба не заливать файлы, защищенные авторскими правами, а также файлы нелегального содержания!