***Уважаемые пользователи и гости !!! Сайт переехал на новый домен Torrents-club.info. Просьба изменить ваши закладки! ***
 
[ Сегодня идет свободное скачивание без начисления Download ]


Статистика раздачи
Качаю: [ 1 ]
 
   
 
 
 
Студентки в кегельбане беса / Sorority Babes in the Slimeball Bowl-O-Rama Информация о фильме
Название: Студентки в кегельбане беса
Оригинальное название: Sorority Babes in the Slimeball Bowl-O-Rama
Год выхода: 1988
Жанр: Ужасы, Комедия
Режиссер: Дэвид ДеКото
Продюсер: Дэвид ДеКото, Джон Шувейлер, Томас А. Кит
Актеры: Андрас Джонс, Линни Куигли, Робин Стилл, Хэл Хэвинс, Джон Стюарт Уилдман, Бринк Стивенс, Мишель Бауэр, Карла Барон, Джордж «Бак» Флауэр
Описание:
Для того, чтобы пройти обряд посвящения в члены тайного студенческого общества, новички должны украсть из соседнего боулинга дорогой призовой кубок. Однако в процессе кражи кубок разбивается и освобождает заточённого в нём злобного демона.

Возраст: 18+ (зрителям, достигшим 18 лет. запрещено для детей)
Рейтинг MPAA: R (лицам до 17 лет обязательно присутствие взрослого)
Продолжительность: 01:19:41
Перевод: Двухголосый профессиональный, Авторский
Субтитры: отсутствуют
Релиз от: R.G. Goldenshara
Файл
Формат: Matroska
Качество видео: BDRemux 1080p
Видео: AVC/H.264, 1920x1080, ~33.9 Mbps, 23.976 fps
Аудио #1: AC3, 2 ch, 48.0 KHz, 192 kbps | Русский - DVO (Дмитрий Полонский и Людмила Ильина)
Аудио #2: AC3, 2 ch, 48.0 KHz, 192 kbps | Русский - AVO (Антон Алексеев)
Аудио #3: LPCM, 6 ch, 48.0 KHz, 6912 kbps | Английский
Аудио #4: LPCM, 2 ch, 48.0 KHz, 2304 kbps | Английский
Аудио #5: AC3, 2 ch, 48.0 KHz, 192 kbps | Английский - Сommentary actress Brinke Stevens, writer Sergei Hasenecz and director David DeCoteau

M/I

General
Complete name : Студенки в кегельбане беса.1988.BDRemux.1080p.R.G. Goldenshara.mkv
Format : Matroska
Format version : Version 4
File size : 24.3 GiB
Duration : 1 h 19 min
Overall bit rate mode : Variable
Overall bit rate : 43.7 Mb/s
Encoded date : UTC 2020-07-06 02:46:13
Writing application : mkvmerge v46.0.0 ('No Deeper Escape') 64-bit
Writing library : libebml v1.3.10 + libmatroska v1.5.2
Video
ID : 1
ID in the original source m : 4113 (0x1011)
Format : AVC
Format/Info : Advanced Video Codec
Format profile : High@L4.1
Format settings : CABAC / 2 Ref Frames
Format settings, CABAC : Yes
Format settings, Reference : 2 frames
Codec ID : V_MPEG4/ISO/AVC
Duration : 1 h 19 min
Bit rate mode : Variable
Bit rate : 33.9 Mb/s
Maximum bit rate : 35.2 Mb/s
Width : 1 920 pixels
Height : 1 080 pixels
Display aspect ratio : 16:9
Frame rate mode : Constant
Frame rate : 23.976 (24000/1001) FPS
Color space : YUV
Chroma subsampling : 4:2:0
Bit depth : 8 bits
Scan type : Progressive
Bits/(Pixel*Frame) : 0.682
Stream size : 18.9 GiB (78%)
Language : English
Default : Yes
Forced : No
Original source medium : Blu-ray
Audio #1
ID : 2
Format : AC-3
Format/Info : Audio Coding 3
Codec ID : A_AC3
Duration : 1 h 19 min
Bit rate : 192 kb/s
Channel(s) : 2 channels
Sampling rate : 48.0 kHz
Frame rate : 31.250 FPS (1536 SPF)
Compression mode : Lossy
Stream size : 109 MiB (0%)
Title : DVO Полонский/Ильина
Language : Russian
Default : Yes
Forced : No
Audio #2
ID : 3
Format : AC-3
Format/Info : Audio Coding 3
Codec ID : A_AC3
Duration : 1 h 19 min
Bit rate : 192 kb/s
Channel(s) : 2 channels
Sampling rate : 48.0 kHz
Frame rate : 31.250 FPS (1536 SPF)
Compression mode : Lossy
Stream size : 109 MiB (0%)
Title : AVO Алексеев
Language : Russian
Default : No
Forced : No
Audio #3
ID : 4
ID in the original source m : 4352 (0x1100)
Format : PCM
Format settings : Little / Signed
Codec ID : A_PCM/INT/LIT
Duration : 1 h 19 min
Bit rate mode : Constant
Bit rate : 6 912 kb/s
Channel(s) : 6 channels
Sampling rate : 48.0 kHz
Frame rate : 200.000 FPS (240 SPF)
Bit depth : 24 bits
Stream size : 3.85 GiB (16%)
Language : English
Default : No
Forced : No
Original source medium : Blu-ray
Audio #4
ID : 5
ID in the original source m : 4353 (0x1101)
Format : PCM
Format settings : Little / Signed
Codec ID : A_PCM/INT/LIT
Duration : 1 h 19 min
Bit rate mode : Constant
Bit rate : 2 304 kb/s
Channel(s) : 2 channels
Sampling rate : 48.0 kHz
Frame rate : 200.000 FPS (240 SPF)
Bit depth : 24 bits
Stream size : 1.28 GiB (5%)
Language : English
Default : No
Forced : No
Original source medium : Blu-ray
Audio #5
ID : 6
ID in the original source m : 4354 (0x1102)
Format : AC-3
Format/Info : Audio Coding 3
Commercial name : Dolby Digital
Codec ID : A_AC3
Duration : 1 h 19 min
Bit rate mode : Constant
Bit rate : 192 kb/s
Channel(s) : 2 channels
Channel layout : L R
Sampling rate : 48.0 kHz
Frame rate : 31.250 FPS (1536 SPF)
Compression mode : Lossy
Stream size : 109 MiB (0%)
Title : Сommentary actress Brinke Stevens, writer Sergei Hasenecz and director David DeCoteau
Language : English
Service kind : Complete Main
Default : No
Forced : No
Original source medium : Blu-ray
Menu
00:00:00.000 : en:Глава 01
00:04:01.282 : en:Глава 02
00:14:45.509 : en:Глава 03
00:21:13.272 : en:Глава 04
00:29:00.572 : en:Глава 05
00:38:14.834 : en:Глава 06
00:49:25.379 : en:Глава 07
00:58:31.216 : en:Глава 08
01:09:22.241 : en:Глава 09
01:15:39.368 : en:Глава 10

Знаете ли Вы, что...

* Фильм был снят за 12 дней.
* В трэке группы Static-X "I'm With Stupid", есть сэмпл с репликой Линни Куигли "Yeah, it was...very stupid."
* В Англии фильм вышел на VHS под оригинальным названием "The Imp".
* Бюджет фильма был слишком маленьким, чтобы арендовать кегельбан в дневное время, поэтому сьемочной группе приходилось ждать до закрытия кегельбана в 9 вечера и снимать до 9 утра.
* Кубок, который якобы сделан из металла, сделан из древесины бальсы.

Скриншоты

[Цитировать]



Показать сообщения:    

Текущее время: 01-Окт 17:31

Часовой пояс: UTC + 6


Вы не можете начинать темы
Вы не можете отвечать на сообщения
Вы не можете редактировать свои сообщения
Вы не можете удалять свои сообщения
Вы не можете голосовать в опросах
Вы не можете прикреплять файлы к сообщениям
Вы не можете скачивать файлы

!ВНИМАНИЕ!
Сайт не предоставляет электронные версии произведений, а занимается лишь коллекционированием и каталогизацией ссылок, присылаемых и публикуемых на форуме нашими читателями. Если вы являетесь правообладателем какого-либо представленного материала и не желаете, чтобы ссылка на него находилась в нашем каталоге, свяжитесь с нами, и мы незамедлительно удалим ее. Файлы для обмена на трекере предоставлены пользователями сайта, и администрация не несет ответственности за их содержание. Просьба не заливать файлы, защищенные авторскими правами, а также файлы нелегального содержания!