***Уважаемые пользователи и гости !!! Сайт переехал на новый домен Torrents-club.info. Просьба изменить ваши закладки! ***
 
[ Сегодня идет свободное скачивание без начисления Download ]


Статистика раздачи
Скачал: [ 2 ]
 
   
 
 
 
 
Лорелея: ведьма Тихого океана / Lorelei: The Witch of the Pacific Ocean (2005) WEB-DLRip 720p | 60 fps Год выпуска: 2005
Страна: Япония
Жанр: фантастика, боевик, триллер, драма, военный
Продолжительность: 02:08:00
Перевод: Профессиональный (многоголосый закадровый)
Субтитры: English
Режиссер: Шинджи Хигучи
Премьера в мире: 5 марта 2005

В ролях:
Кодзи Якусё, Сатоси Цумабуки, Тоширо Янагиба, Касии Ю, Синъити Цуцуми, Кен Ишигуро, Колтер Эллисон, Дэвид Остин, Николас Домбровкис, Кристофер Райан Дойл, Норман Инглэнд, Кэролайн Пэрис Глюк, Исао Хасидзумэ, Масато Ибу, Такая Камикава, Рюки Китаока, Крева, Дзюн Кунимура, Мэтт Лаган, Дэйв Монахэн, Дж.Дж. Мортимер, Такехико Оно, Шуго Ошинари, Тайрон Пауэр мл., Рюта Сато, Фред Спайкер, Пьер Таки, Ёсиюки Томино, Синго Цуруми
Описание:
Лето 1945 года. Хиросима и Нагасаки покрыты пеплом. В условиях строжайшей секретности японский флот получает от Германии новую субмарину — лодку, оборудованную секретным оружием «Система Лорелея». С его помощью японские подводники должны предотвратить новые атомные бомбардировки…
Качество: WEB-DLRip 720p / 60 FPS
Формат: MKV
Видео кодек: H.264
Аудио кодек: AC3
Видео: x264, 1280 x 544 ( 2,35:1 ), 4250 kbps, 60,000 fps, ( 0.102 bpp)
Аудио#1: Русский, AC-3, 48.0 KHz, 2 ch, 192 Kbps MVO

MediaInfo:

x264 [info]: frame I:1505 Avg QP:16.71 size: 72008
x264 [info]: frame P:101904 Avg QP:17.75 size: 20914
x264 [info]: frame B:359609 Avg QP:19.74 size: 5172
x264 [info]: consecutive B-frames: 1.4% 1.7% 4.2% 8.1% 76.7% 7.9%
Общее
Уникальный идентификатор : 217959060047159088083762685742114174788 (0xA3F963568F0B320EBF53079AA1647744)
Полное имя : F:\Lorelei.The.Witch.of.the.Pacific.Ocean.(2005).WEB-DLRip.720p.(60 Fps).mkv
Формат : Matroska
Версия формата : Version 4
Размер файла : 3,99 Гбайт
Продолжительность : 2 ч. 8 м.
Общий поток : 4446 Кбит/сек
Название фильма : Лорелея: ведьма Тихого океана / Lorelei: The Witch of the Pacific Ocean (2005) WEB-DLRip 720p (60 Fps)
Дата кодирования : UTC 2020-07-27 13:47:57
Программа кодирования : mkvmerge v12.0.0 ('Trust / Lust') 64bit
Библиотека кодирования : libebml v1.3.4 + libmatroska v1.4.5
Видео
Идентификатор : 1
Формат : AVC
Формат/Информация : Advanced Video Codec
Профиль формата : High@L4.1
Настройки формата : CABAC / 8 Ref Frames
Параметр CABAC формата : Да
Параметр RefFrames формата : 8 кадров
Идентификатор кодека : V_MPEG4/ISO/AVC
Продолжительность : 2 ч. 8 м.
Битрейт : 4250 Кбит/сек
Ширина : 1280 пикселей
Высота : 544 пикселя
Соотношение сторон : 2,35:1
Режим частоты кадров : Постоянный
Частота кадров : 60,000 кадров/сек
Цветовое пространство : YUV
Субдискретизация насыщенности : 4:2:0
Битовая глубина : 8 бит
Тип развёртки : Прогрессивная
Бит/(Пиксели*Кадры) : 0.102
Размер потока : 3,82 Гбайт (96%)
Заголовок : slaventi-69 ( R.G. HD-Films | 60 fps )
Библиотека кодирования : x264 core 130 r2273 b3065e6
Настройки программы : cabac=1 / ref=9 / deblock=1:-1:-1 / analyse=0x3:0x133 / me=umh / subme=9 / psy=1 / psy_rd=1.00:0.00 / mixed_ref=1 / me_range=32 / chroma_me=1 / trellis=2 / 8x8dct=1 / cqm=0 / deadzone=21,11 / fast_pskip=0 / chroma_qp_offset=-2 / threads=10 / lookahead_threads=4 / sliced_threads=0 / nr=0 / decimate=1 / interlaced=0 / bluray_compat=0 / constrained_intra=0 / bframes=5 / b_pyramid=1 / b_adapt=2 / b_bias=0 / direct=2 / weightb=1 / open_gop=0 / weightp=2 / keyint=600 / keyint_min=60 / scenecut=40 / intra_refresh=0 / rc=crf / mbtree=0 / crf=17.0 / qcomp=0.60 / qpmin=0 / qpmax=69 / qpstep=4 / ip_ratio=1.40 / pb_ratio=1.30 / aq=1:1.00
Язык : Japanese
Default : Да
Forced : Нет
Аудио
Идентификатор : 2
Формат : AC-3
Формат/Информация : Audio Coding 3
Коммерческое название : Dolby Digital
Идентификатор кодека : A_AC3
Продолжительность : 2 ч. 8 м.
Вид битрейта : Постоянный
Битрейт : 192 Кбит/сек
Каналы : 2 канала
Channel layout : L R
Частота : 48,0 КГц
Частота кадров : 31,250 кадров/сек (1536 SPF)
Битовая глубина : 16 бит
Метод сжатия : С потерями
Размер потока : 177 Мбайт (4%)
Заголовок : MVO
Язык : Russian
ServiceKind/String : Complete Main
Default : Да
Forced : Нет
Текст
Идентификатор : 3
Формат : UTF-8
Идентификатор кодека : S_TEXT/UTF8
Идентификатор кодека/Информация : UTF-8 Plain Text
Продолжительность : 2 ч. 2 м.
Битрейт : 31 бит/сек
ElementCount : 1066
Размер потока : 28,0 Кбайт (0%)
Язык : English
Default : Нет
Forced : Нет

[Цитировать]



Показать сообщения:    

Текущее время: 01-Окт 18:00

Часовой пояс: UTC + 6


Вы не можете начинать темы
Вы не можете отвечать на сообщения
Вы не можете редактировать свои сообщения
Вы не можете удалять свои сообщения
Вы не можете голосовать в опросах
Вы не можете прикреплять файлы к сообщениям
Вы не можете скачивать файлы

!ВНИМАНИЕ!
Сайт не предоставляет электронные версии произведений, а занимается лишь коллекционированием и каталогизацией ссылок, присылаемых и публикуемых на форуме нашими читателями. Если вы являетесь правообладателем какого-либо представленного материала и не желаете, чтобы ссылка на него находилась в нашем каталоге, свяжитесь с нами, и мы незамедлительно удалим ее. Файлы для обмена на трекере предоставлены пользователями сайта, и администрация не несет ответственности за их содержание. Просьба не заливать файлы, защищенные авторскими правами, а также файлы нелегального содержания!