***Уважаемые пользователи и гости !!! Сайт переехал на новый домен Torrents-club.info. Просьба изменить ваши закладки! ***
 
[ Сегодня идет свободное скачивание без начисления Download ]


Статистика раздачи
Нет
 
   
 
 
 
 
Джек Ричер 2: Никогда не возвращайся / Jack Reacher: Never Go Back (2016) [HEVC, HDR, 4K / Blu-Ray Remux] (2160p) Год выпуска: 2016
Жанр: Боевик, триллер, криминал, детектив, экранизация
Выпущено: Китай, США, Huahua Film & Media Culture, Paramount Pictures
Режиссер: Эдвард Цвик
Продолжительность: 01:58:08
Перевод: Дублированный, авторский
Субтитры: Русские, английские, украинские
Возраст 16+

В ролях
: Том Круз, Коби Смолдерс, Роберт Неппер, Даника Ярош, Нинджа Н. Деву, Элдис Ходж, Холт МакКэллани, Мэдалин Хорчер, Чейз Савой, Сью-Линн Ансари
О фильме: Джек Ричер решил взять передышку и вернуться в родное 110-е подразделение военной полиции, где он когда-то был начальником. Тем более у него есть дополнительный интерес — действующий командир части, майор Сьюзан Тернер. Именно майор Тернер выручила его, сообщая своим волнующим голосом по телефону ценную информацию, которая помогла Джеку Ричеру выпутаться из серьезных неприятностей. И вот теперь у него есть возможность поблагодарить коллегу лично. Вот только оказавшись в расположении части, Ричер узнает, что буквально на днях Сьюзан арестовали за получение крупной взятки. А его самого обвинили в убийстве шестнадцатилетней давности, о событиях которого он ничего не помнит. Странное совпадение или чей-то злой умысел? Возвращение в место, где когда-то было хорошо и относительно спокойно, оборачивается новыми неприятностями и приключениями.
Джек Ричер 2: Никогда не возвращайся - Трейлер на русском (2016)
Техданные
Качество: Blu-Ray Remux (2160p)
Видео: HEVC, 57.0 Мбит/с, 3840x2160
Аудио: Русский (AC3, 6 ch, 640 Кбит/с), (DTS, 6 ch, 1509 Кбит/с), (DTS-HD MA, 8 ch, 3582 Кбит/с), английский (TrueHD, 8 ch, 4326 Кбит/с), (AC3, 6 ch, 640 Кбит/с)

Релиз

Озвучивание:
Аудио 1: Русский : DD, 5.1, 48 kHz, 640 kbps - Дублированное (Blu-Ray CEE)
Аудио 2: Русский : DTS 5.1, 48 KHz, 1509 kbps - АП (Володарский)
Аудио 4: Русский : DTS 5.1, 48 KHz, 1509 kbps - АП (Горчаков)
Аудио 5: Русский : DTS 5.1, 48 KHz, 1509 kbps - АП (Живов)
Аудио 3: Русский : DTS-HD MA 7.1, 48 KHz, 3582 kbps - АП (Яроцкий)
Субтитры: Русские (Forced, iTunes), русские (iTunes), украинские, английские

MediaInfo:

General
Unique ID                   : 253571659974833259655059170415654776236 (0xBEC420139E46A0379D03E91BCC0CADAC)
Complete name               : G:\VideoSSD\Jack.Reacher.Never.Go.Back.2016.BDREMUX.2160p.4K.UltraHD.HEVC.HDR.ExKinoRay.mkv
Format                      : Matroska
Format version              : Version 4 / Version 2
File size                   : 58.4 GiB
Duration                    : 1 h 58 min
Overall bit rate mode       : Variable
Overall bit rate            : 70.8 Mb/s
Encoded date                : UTC 2017-10-23 20:07:40
Writing application         : mkvmerge v17.0.0 ('Be Ur Friend') 64-bit
Writing library             : libebml v1.3.5 + libmatroska v1.4.8
Video
ID                          : 1
Format                      : HEVC
Format/Info                 : High Efficiency Video Coding
Format profile              : Main 10@L5.1@High
Codec ID                    : V_MPEGH/ISO/HEVC
Duration                    : 1 h 58 min
Bit rate                    : 57.0 Mb/s
Width                       : 3 840 pixels
Height                      : 2 160 pixels
Display aspect ratio        : 16:9
Frame rate mode             : Constant
Frame rate                  : 23.976 (24000/1001) FPS
Color space                 : YUV
Chroma subsampling          : 4:2:0 (Type 2)
Bit depth                   : 10 bits
Bits/(Pixel*Frame)          : 0.287
Stream size                 : 47.0 GiB (81%)
Writing library             : ATEME Titan File 3.7.8 (4.7.8.0)
Language                    : English
Default                     : Yes
Forced                      : No
Color range                 : Limited
Color primaries             : BT.2020
Transfer characteristics    : PQ
Matrix coefficients         : BT.2020 non-constant
Mastering display color pri : R: x=0.680000 y=0.320000, G: x=0.265000 y=0.690000, B: x=0.150000 y=0.060000, White point: x=0.312700 y=0.329000
Mastering display luminance : min: 0.0050 cd/m2, max: 1000.0000 cd/m2
Audio #1
ID                          : 2
Format                      : AC-3
Format/Info                 : Audio Coding 3
Format settings, Endianness : Big
Codec ID                    : A_AC3
Duration                    : 1 h 58 min
Bit rate mode               : Constant
Bit rate                    : 640 kb/s
Channel(s)                  : 6 channels
Channel positions           : Front: L C R, Side: L R, LFE
Sampling rate               : 48.0 kHz
Frame rate                  : 31.250 FPS (1536 SPF)
Bit depth                   : 16 bits
Compression mode            : Lossy
Stream size                 : 541 MiB (1%)
Title                       : Dub [License]
Language                    : Russian
Service kind                : Complete Main
Default                     : Yes
Forced                      : No
Audio #2
ID                          : 3
Format                      : TrueHD
Format profile              : TrueHD+Atmos / TrueHD
Codec ID                    : A_TRUEHD
Duration                    : 1 h 58 min
Bit rate mode               : Variable
Bit rate                    : 4 326 kb/s
Maximum bit rate            : 7 758 kb/s
Channel(s)                  : Object Based / 8 channels
Channel positions           : Object Based / Front: L C R, Side: L R, Back: L R, LFE
Sampling rate               :  / 48.0 kHz
Frame rate                  : 1 200.000 FPS (40 SPF)
Compression mode            : Lossless
Stream size                 : 3.57 GiB (6%)
Title                       : Original
Language                    : English
Default                     : No
Forced                      : No
Audio #3
ID                          : 4
Format                      : AC-3
Format/Info                 : Audio Coding 3
Format settings, Endianness : Big
Codec ID                    : A_AC3
Duration                    : 1 h 58 min
Bit rate mode               : Constant
Bit rate                    : 640 kb/s
Channel(s)                  : 6 channels
Channel positions           : Front: L C R, Side: L R, LFE
Sampling rate               : 48.0 kHz
Frame rate                  : 31.250 FPS (1536 SPF)
Bit depth                   : 16 bits
Compression mode            : Lossy
Stream size                 : 541 MiB (1%)
Language                    : English
Service kind                : Complete Main
Default                     : No
Forced                      : No
Audio #4
ID                          : 5
Format                      : DTS
Format/Info                 : Digital Theater Systems
Mode                        : 16
Format settings, Endianness : Big
Codec ID                    : A_DTS
Duration                    : 1 h 58 min
Bit rate mode               : Constant
Bit rate                    : 1 509 kb/s
Channel(s)                  : 6 channels
Channel positions           : Front: L C R, Side: L R, LFE
Sampling rate               : 48.0 kHz
Frame rate                  : 93.750 FPS (512 SPF)
Bit depth                   : 24 bits
Compression mode            : Lossy
Stream size                 : 1.25 GiB (2%)
Title                       : AVO [Живов]
Language                    : Russian
Default                     : No
Forced                      : No
Audio #5
ID                          : 6
Format                      : DTS
Format/Info                 : Digital Theater Systems
Mode                        : 16
Format settings, Endianness : Big
Codec ID                    : A_DTS
Duration                    : 1 h 58 min
Bit rate mode               : Constant
Bit rate                    : 1 509 kb/s
Channel(s)                  : 6 channels
Channel positions           : Front: L C R, Side: L R, LFE
Sampling rate               : 48.0 kHz
Frame rate                  : 93.750 FPS (512 SPF)
Bit depth                   : 24 bits
Compression mode            : Lossy
Stream size                 : 1.25 GiB (2%)
Title                       : AVO [Володарский]
Language                    : Russian
Default                     : No
Forced                      : No
Audio #6
ID                          : 7
Format                      : DTS
Format/Info                 : Digital Theater Systems
Mode                        : 16
Format settings, Endianness : Big
Codec ID                    : A_DTS
Duration                    : 1 h 58 min
Bit rate mode               : Constant
Bit rate                    : 1 509 kb/s
Channel(s)                  : 6 channels
Channel positions           : Front: L C R, Side: L R, LFE
Sampling rate               : 48.0 kHz
Frame rate                  : 93.750 FPS (512 SPF)
Bit depth                   : 24 bits
Compression mode            : Lossy
Stream size                 : 1.25 GiB (2%)
Title                       : AVO [Горчаков]
Language                    : Russian
Default                     : No
Forced                      : No
Audio #7
ID                          : 8
Format                      : DTS
Format/Info                 : Digital Theater Systems
Format profile              : MA / Core
Mode                        : 16
Format settings, Endianness : Big
Codec ID                    : A_DTS
Duration                    : 1 h 58 min
Bit rate mode               : Variable / Constant
Bit rate                    : 3 582 kb/s / 1 509 kb/s
Channel(s)                  : 8 channels / 6 channels
Channel positions           : Front: L C R, Side: L R, Back: L R, LFE / Front: L C R, Side: L R, LFE
Sampling rate               : 48.0 kHz
Frame rate                  : 93.750 FPS (512 SPF)
Bit depth                   : 24 bits
Compression mode            : Lossless / Lossy
Stream size                 : 2.96 GiB (5%)
Title                       : AVO [kyberpunk]
Language                    : Russian
Default                     : No
Forced                      : No
Text #1
ID                          : 9
Format                      : UTF-8
Codec ID                    : S_TEXT/UTF8
Codec ID/Info               : UTF-8 Plain Text
Duration                    : 1 h 13 min
Bit rate                    : 0 b/s
Count of elements           : 8
Stream size                 : 406 Bytes (0%)
Title                       : Forced [iTunes]
Language                    : Russian
Default                     : Yes
Forced                      : No
Text #2
ID                          : 10
Format                      : UTF-8
Codec ID                    : S_TEXT/UTF8
Codec ID/Info               : UTF-8 Plain Text
Duration                    : 1 h 52 min
Bit rate                    : 79 b/s
Count of elements           : 1277
Stream size                 : 65.5 KiB (0%)
Title                       : Full [iTunes]
Language                    : Russian
Default                     : No
Forced                      : No
Text #3
ID                          : 11
Format                      : UTF-8
Codec ID                    : S_TEXT/UTF8
Codec ID/Info               : UTF-8 Plain Text
Duration                    : 1 h 57 min
Bit rate                    : 78 b/s
Count of elements           : 1431
Stream size                 : 67.6 KiB (0%)
Title                       : Full [Blu-ray CEE]
Language                    : Ukrainian
Default                     : No
Forced                      : No
Text #4
ID                          : 12
Format                      : UTF-8
Codec ID                    : S_TEXT/UTF8
Codec ID/Info               : UTF-8 Plain Text
Duration                    : 1 h 51 min
Bit rate                    : 49 b/s
Count of elements           : 1416
Stream size                 : 40.5 KiB (0%)
Title                       : Full
Language                    : English
Default                     : No
Forced                      : No
Text #5
ID                          : 13
Format                      : UTF-8
Codec ID                    : S_TEXT/UTF8
Codec ID/Info               : UTF-8 Plain Text
Duration                    : 1 h 52 min
Bit rate                    : 53 b/s
Count of elements           : 1530
Stream size                 : 43.9 KiB (0%)
Title                       : SDH
Language                    : English
Default                     : No
Forced                      : No
Menu
00:00:00.000                : en:00:00:00.000
00:07:00.629                : en:00:07:00.629
00:15:19.877                : en:00:15:19.877
00:20:33.858                : en:00:20:33.858
00:29:04.576                : en:00:29:04.576
00:34:35.740                : en:00:34:35.740
00:42:40.141                : en:00:42:40.141
00:49:28.007                : en:00:49:28.007
00:58:44.563                : en:00:58:44.563
01:03:10.161                : en:01:03:10.161
01:09:35.755                : en:01:09:35.755
01:15:05.334                : en:01:15:05.334
01:21:59.665                : en:01:21:59.665
01:27:07.222                : en:01:27:07.222
01:34:14.065                : en:01:34:14.065
01:46:44.857                : en:01:46:44.857
01:53:30.846                : en:01:53:30.846

Скриншоты

[Цитировать]



Показать сообщения:    

Текущее время: 01-Окт 18:28

Часовой пояс: UTC + 6


Вы не можете начинать темы
Вы не можете отвечать на сообщения
Вы не можете редактировать свои сообщения
Вы не можете удалять свои сообщения
Вы не можете голосовать в опросах
Вы не можете прикреплять файлы к сообщениям
Вы не можете скачивать файлы

!ВНИМАНИЕ!
Сайт не предоставляет электронные версии произведений, а занимается лишь коллекционированием и каталогизацией ссылок, присылаемых и публикуемых на форуме нашими читателями. Если вы являетесь правообладателем какого-либо представленного материала и не желаете, чтобы ссылка на него находилась в нашем каталоге, свяжитесь с нами, и мы незамедлительно удалим ее. Файлы для обмена на трекере предоставлены пользователями сайта, и администрация не несет ответственности за их содержание. Просьба не заливать файлы, защищенные авторскими правами, а также файлы нелегального содержания!