***Уважаемые пользователи и гости !!! Сайт переехал на новый домен Torrents-club.info. Просьба изменить ваши закладки! ***
 
[ Сегодня идет свободное скачивание без начисления Download ]


Статистика раздачи
Нет
 
   
 
 
 
 
Джек Ричер 2: Никогда не возвращайся / Jack Reacher: Never Go Back (2016) [4K, UHD, SDR / BDRip] (2160p) Год выпуска: 2016
Жанр: Боевик, триллер, криминал, детектив, экранизация
Выпущено: Китай, США, Huahua Film & Media Culture, Paramount Pictures
Режиссер: Эдвард Цвик
Продолжительность: 01:58:08
Перевод: Дублированный, авторский
Субтитры: Русские, английские, украинские
Возраст 16+

В ролях
: Том Круз, Коби Смолдерс, Роберт Неппер, Даника Ярош, Нинджа Н. Деву, Элдис Ходж, Холт МакКэллани, Мэдалин Хорчер, Чейз Савой, Сью-Линн Ансари
О фильме: Джек Ричер решил взять передышку и вернуться в родное 110-е подразделение военной полиции, где он когда-то был начальником. Тем более у него есть дополнительный интерес — действующий командир части, майор Сьюзан Тернер. Именно майор Тернер выручила его, сообщая своим волнующим голосом по телефону ценную информацию, которая помогла Джеку Ричеру выпутаться из серьезных неприятностей. И вот теперь у него есть возможность поблагодарить коллегу лично. Вот только оказавшись в расположении части, Ричер узнает, что буквально на днях Сьюзан арестовали за получение крупной взятки. А его самого обвинили в убийстве шестнадцатилетней давности, о событиях которого он ничего не помнит. Странное совпадение или чей-то злой умысел? Возвращение в место, где когда-то было хорошо и относительно спокойно, оборачивается новыми неприятностями и приключениями.
Джек Ричер 2: Никогда не возвращайся - Трейлер на русском (2016)
Техданные
Качество: BDRip (2160p)
Видео: MPEG-4 AVC, 57600 Кбит/с, 3840x1606, 23.976 кадр/с
Аудио: Русский (AC3, 6 ch, 448 Кбит/с), украинский (AAC, 2 ch, 128 Кбит/с), английский (TrueHD, 8 ch, 4326 Кбит/с), (AC3, 6 ch, 448 Кбит/с)

Релиз

Мастер 5
Источник: https://torrents-club.info/viewtopic.php?t=183440 _Converted из 10-битного HDR в 8 бит SDR
Профиль формата: High@L5.1_8 ми-битный SDR
Аудио #1: AC-3, 48.0 KHz, 6 ch, 448 Kbps, CBR (Russian) - дублированный
Аудио #2: AC-3, 48.0 KHz, 6 ch, 448 Kbps, CBR (Russian) - авторский В.Горчаков
Аудио #3: AC-3, 48.0 KHz, 6 ch, 448 Kbps, CBR (Russian) - авторский Л.Володарский
Аудио #4: AC-3, 48.0 KHz, 6 ch, 448 Kbps, CBR (Russian) - авторский Ю.Живов
Аудио #5: AC-3, 48.0 KHz, 6 ch, 448 Kbps, CBR (Russian) - авторский М.Яроцкий
Аудио #6: AAC, 48.0 KHz, 6 ch, 128 Kbps, CBR (Ukrainian) - украинский
Аудио #7: AC-3, 48.0 KHz, 6 ch, 448 Kbps, CBR (English) - оригинальная звуковая дорожка
Аудио #8: Atmos / TrueHD, 48.0 KHz, 8 ch, 4326 Kbps, CBR (English) - оригинальная звуковая дорожка
Субтитры: Русские, украинские, английские

MediaInfo:

Общее
Уникальный идентификатор                 : 170803659202874335916541730251872027879 (0x807F96936BE42D0492C233E3FA1A44E7)
Полное имя                               : D:\Новая папкаVid\Новая_Мои раздачи\Jack.Reacher.Never.Go.Back.2016.2160p.BluRay.SDR.8bit.UHD.BDRip.x264.Master5.mkv
Формат                                   : Matroska
Версия формата                           : Version 4 / Version 2
Размер файла                             : 53,5 Гбайт
Продолжительность                        : 1 ч. 58 м.
Режим общего битрейта                    : Переменный
Общий поток                              : 64,8 Мбит/сек
Название фильма                          : Jack.Reacher.Never.Go.Back.2016.2160p.BluRay.SDR.8bit.UHD.BDRip.x264.Master5
Дата кодирования                         : UTC 2017-10-30 06:07:15
Программа кодирования                    : mkvmerge v8.1.0 ('Psychedelic Postcard') 32bit
Библиотека кодирования                   : libebml v1.3.1 + libmatroska v1.4.2
Обложка                                  : Yes
Attachments                              : cover.jpg
Видео
Идентификатор                            : 1
Формат                                   : AVC
Формат/Информация                        : Advanced Video Codec
Профиль формата                          : High@L5.1
Параметр CABAC формата                   : Да
Параметр ReFrames формата                : 5 кадров
Идентификатор кодека                     : V_MPEG4/ISO/AVC
Продолжительность                        : 1 ч. 58 м.
Битрейт                                  : 57,6 Мбит/сек
Ширина                                   : 3840 пикселей
Высота                                   : 1606 пикселей
Соотношение сторон                       : 2,40:1
Режим частоты кадров                     : Постоянный
Частота кадров                           : 23,976 (24000/1001) кадра/сек
Цветовое пространство                    : YUV
Субдискретизация насыщенности            : 4:2:0
Битовая глубина                          : 8 бит
Тип развёртки                            : Прогрессивная
Бит/(Пиксели*Кадры)                      : 0.389
Размер потока                            : 47,5 Гбайт (89%)
Заголовок                                : Jack.Reacher.Never.Go.Back.2016.2160p.BluRay.SDR.8bit.UHD.BDRip.x264.Master5
Библиотека кодирования                   : x264 core 148 r2748 97eaef2
Настройки программы                      : cabac=1 / ref=5 / deblock=1:-1:-1 / analyse=0x3:0x113 / me=umh / subme=10 / psy=1 / psy_rd=1.00:0.15 / mixed_ref=1 / me_range=48 / chroma_me=1 / trellis=2 / 8x8dct=1 / cqm=0 / deadzone=21,11 / fast_pskip=1 / chroma_qp_offset=-3 / threads=50 / lookahead_threads=4 / sliced_threads=0 / nr=0 / decimate=0 / interlaced=0 / bluray_compat=0 / constrained_intra=0 / bframes=3 / b_pyramid=2 / b_adapt=2 / b_bias=0 / direct=3 / weightb=1 / open_gop=0 / weightp=2 / keyint=250 / keyint_min=23 / scenecut=40 / intra_refresh=0 / rc_lookahead=50 / rc=crf / mbtree=1 / crf=18.0 / qcomp=0.60 / qpmin=0 / qpmax=69 / qpstep=4 / ip_ratio=1.40 / aq=1:1.00
Язык                                     : English
Default                                  : Да
Forced                                   : Нет
Аудио #1
Идентификатор                            : 2
Формат                                   : Atmos / TrueHD
Идентификатор кодека                     : A_TRUEHD
Продолжительность                        : 1 ч. 58 м.
Вид битрейта                             : Переменный
Битрейт                                  : 4326 Кбит/сек
Максимальный битрейт                     : 7758 Кбит/сек
Каналы                                   : Object Based / 8 каналов
Расположение каналов                     : Object Based / Front: L C R, Side: L R, Back: L R, LFE
Частота                                  :  / 48,0 КГц
Частота кадров                           : 1200,000 кадров/сек (40 spf)
Метод сжатия                             : Без потерь
Задержка видео                           : 32 мс.
Размер потока                            : 3,57 Гбайт (7%)
Язык                                     : English
Default                                  : Нет
Forced                                   : Нет
Аудио #2
Идентификатор                            : 3
Формат                                   : AAC
Формат/Информация                        : Advanced Audio Codec
Профиль формата                          : LC
Идентификатор кодека                     : A_AAC
Продолжительность                        : 1 ч. 58 м.
Битрейт                                  : 128 Кбит/сек
Каналы                                   : 2 канала
Расположение каналов                     : Front: L R
Частота                                  : 48,0 КГц
Частота кадров                           : 46,875 кадров/сек (1024 spf)
Метод сжатия                             : С потерями
Размер потока                            : 108 Мбайт (0%)
Язык                                     : Ukrainian
Default                                  : Нет
Forced                                   : Нет
Аудио #3
Идентификатор                            : 4
Формат                                   : AC-3
Формат/Информация                        : Audio Coding 3
Расширение режима                        : CM (complete main)
Параметр Endianness формата              : Big
Идентификатор кодека                     : A_AC3
Продолжительность                        : 1 ч. 58 м.
Вид битрейта                             : Постоянный
Битрейт                                  : 448 Кбит/сек
Каналы                                   : 6 каналов
Расположение каналов                     : Front: L C R, Side: L R, LFE
Частота                                  : 48,0 КГц
Частота кадров                           : 31,250 кадров/сек (1536 spf)
Метод сжатия                             : С потерями
Размер потока                            : 379 Мбайт (1%)
Заголовок                                : Dub (BD CEE)
Язык                                     : Russian
Default                                  : Да
Forced                                   : Нет
Аудио #4
Идентификатор                            : 5
Формат                                   : AC-3
Формат/Информация                        : Audio Coding 3
Расширение режима                        : CM (complete main)
Параметр Endianness формата              : Big
Идентификатор кодека                     : A_AC3
Продолжительность                        : 1 ч. 58 м.
Вид битрейта                             : Постоянный
Битрейт                                  : 448 Кбит/сек
Каналы                                   : 6 каналов
Расположение каналов                     : Front: L C R, Side: L R, LFE
Частота                                  : 48,0 КГц
Частота кадров                           : 31,250 кадров/сек (1536 spf)
Метод сжатия                             : С потерями
Размер потока                            : 379 Мбайт (1%)
Заголовок                                : AVO (Горчаков)
Язык                                     : Russian
Default                                  : Нет
Forced                                   : Нет
Аудио #5
Идентификатор                            : 6
Формат                                   : AC-3
Формат/Информация                        : Audio Coding 3
Расширение режима                        : CM (complete main)
Параметр Endianness формата              : Big
Идентификатор кодека                     : A_AC3
Продолжительность                        : 1 ч. 58 м.
Вид битрейта                             : Постоянный
Битрейт                                  : 448 Кбит/сек
Каналы                                   : 6 каналов
Расположение каналов                     : Front: L C R, Side: L R, LFE
Частота                                  : 48,0 КГц
Частота кадров                           : 31,250 кадров/сек (1536 spf)
Метод сжатия                             : С потерями
Размер потока                            : 379 Мбайт (1%)
Заголовок                                : AVO (Володарский)
Язык                                     : Russian
Default                                  : Нет
Forced                                   : Нет
Аудио #6
Идентификатор                            : 7
Формат                                   : AC-3
Формат/Информация                        : Audio Coding 3
Расширение режима                        : CM (complete main)
Параметр Endianness формата              : Big
Идентификатор кодека                     : A_AC3
Продолжительность                        : 1 ч. 58 м.
Вид битрейта                             : Постоянный
Битрейт                                  : 448 Кбит/сек
Каналы                                   : 6 каналов
Расположение каналов                     : Front: L C R, Side: L R, LFE
Частота                                  : 48,0 КГц
Частота кадров                           : 31,250 кадров/сек (1536 spf)
Метод сжатия                             : С потерями
Размер потока                            : 379 Мбайт (1%)
Заголовок                                : AVO (Живов)
Язык                                     : Russian
Default                                  : Нет
Forced                                   : Нет
Аудио #7
Идентификатор                            : 8
Формат                                   : AC-3
Формат/Информация                        : Audio Coding 3
Расширение режима                        : CM (complete main)
Параметр Endianness формата              : Big
Идентификатор кодека                     : A_AC3
Продолжительность                        : 1 ч. 58 м.
Вид битрейта                             : Постоянный
Битрейт                                  : 448 Кбит/сек
Каналы                                   : 6 каналов
Расположение каналов                     : Front: L C R, Side: L R, LFE
Частота                                  : 48,0 КГц
Частота кадров                           : 31,250 кадров/сек (1536 spf)
Метод сжатия                             : С потерями
Размер потока                            : 379 Мбайт (1%)
Заголовок                                : AVO (Яроцкий)
Язык                                     : Russian
Default                                  : Нет
Forced                                   : Нет
Аудио #8
Идентификатор                            : 9
Формат                                   : AC-3
Формат/Информация                        : Audio Coding 3
Расширение режима                        : CM (complete main)
Параметр Endianness формата              : Big
Идентификатор кодека                     : A_AC3
Продолжительность                        : 1 ч. 58 м.
Вид битрейта                             : Постоянный
Битрейт                                  : 448 Кбит/сек
Каналы                                   : 6 каналов
Расположение каналов                     : Front: L C R, Side: L R, LFE
Частота                                  : 48,0 КГц
Частота кадров                           : 31,250 кадров/сек (1536 spf)
Метод сжатия                             : С потерями
Размер потока                            : 379 Мбайт (1%)
Язык                                     : English
Default                                  : Нет
Forced                                   : Нет
Текст #1
Идентификатор                            : 10
Формат                                   : UTF-8
Идентификатор кодека                     : S_TEXT/UTF8
Идентификатор кодека/Информация          : UTF-8 Plain Text
Продолжительность                        : 1 ч. 13 м.
Битрейт                                  : 0 бит/сек
Count of elements                        : 8
Размер потока                            : 406 байт (0%)
Заголовок                                : Forced
Язык                                     : Russian
Default                                  : Да
Forced                                   : Нет
Текст #2
Идентификатор                            : 11
Формат                                   : UTF-8
Идентификатор кодека                     : S_TEXT/UTF8
Идентификатор кодека/Информация          : UTF-8 Plain Text
Продолжительность                        : 1 ч. 52 м.
Битрейт                                  : 79 бит/сек
Count of elements                        : 1277
Размер потока                            : 65,5 Кбайт (0%)
Заголовок                                : Full
Язык                                     : Russian
Default                                  : Нет
Forced                                   : Нет
Текст #3
Идентификатор                            : 12
Формат                                   : UTF-8
Идентификатор кодека                     : S_TEXT/UTF8
Идентификатор кодека/Информация          : UTF-8 Plain Text
Продолжительность                        : 1 ч. 57 м.
Битрейт                                  : 78 бит/сек
Count of elements                        : 1431
Размер потока                            : 67,6 Кбайт (0%)
Язык                                     : Ukrainian
Default                                  : Нет
Forced                                   : Нет
Текст #4
Идентификатор                            : 13
Формат                                   : UTF-8
Идентификатор кодека                     : S_TEXT/UTF8
Идентификатор кодека/Информация          : UTF-8 Plain Text
Продолжительность                        : 1 ч. 51 м.
Битрейт                                  : 49 бит/сек
Count of elements                        : 1416
Размер потока                            : 40,5 Кбайт (0%)
Язык                                     : English
Default                                  : Нет
Forced                                   : Нет
Текст #5
Идентификатор                            : 14
Формат                                   : UTF-8
Идентификатор кодека                     : S_TEXT/UTF8
Идентификатор кодека/Информация          : UTF-8 Plain Text
Продолжительность                        : 1 ч. 52 м.
Битрейт                                  : 53 бит/сек
Count of elements                        : 1530
Размер потока                            : 43,9 Кбайт (0%)
Заголовок                                : SDH
Язык                                     : English
Default                                  : Нет
Forced                                   : Нет
Меню
00:00:00.000                             : en:Chapter 1
00:07:00.628                             : en:Chapter 2
00:15:19.877                             : en:Chapter 3
00:20:33.857                             : en:Chapter 4
00:29:04.576                             : en:Chapter 5
00:34:35.740                             : en:Chapter 6
00:42:40.140                             : en:Chapter 7
00:49:28.006                             : en:Chapter 8
00:58:44.562                             : en:Chapter 9
01:03:10.161                             : en:Chapter 10
01:09:35.754                             : en:Chapter 11
01:15:05.334                             : en:Chapter 12
01:21:59.664                             : en:Chapter 13
01:27:07.222                             : en:Chapter 14
01:34:14.065                             : en:Chapter 15
01:46:44.856                             : en:Chapter 16
01:53:30.845                             : en:Chapter 17

Скриншоты

[Цитировать]



Показать сообщения:    

Текущее время: 01-Окт 18:26

Часовой пояс: UTC + 6


Вы не можете начинать темы
Вы не можете отвечать на сообщения
Вы не можете редактировать свои сообщения
Вы не можете удалять свои сообщения
Вы не можете голосовать в опросах
Вы не можете прикреплять файлы к сообщениям
Вы не можете скачивать файлы

!ВНИМАНИЕ!
Сайт не предоставляет электронные версии произведений, а занимается лишь коллекционированием и каталогизацией ссылок, присылаемых и публикуемых на форуме нашими читателями. Если вы являетесь правообладателем какого-либо представленного материала и не желаете, чтобы ссылка на него находилась в нашем каталоге, свяжитесь с нами, и мы незамедлительно удалим ее. Файлы для обмена на трекере предоставлены пользователями сайта, и администрация не несет ответственности за их содержание. Просьба не заливать файлы, защищенные авторскими правами, а также файлы нелегального содержания!