***Уважаемые пользователи и гости !!! Сайт переехал на новый домен Torrents-club.info. Просьба изменить ваши закладки! ***
 
[ Сегодня идет свободное скачивание без начисления Download ]


Статистика раздачи
Нет
 
   
 
 
 
 
Информация о фильме
Название: Заклятье. Дом 32
Оригинальное название: Malasaña 32
Год выхода: 2020
Жанр: Ужасы
Режиссер: Альберт Пинто
В ролях: Бегонья Варгас, Иван Маркос, Беа Сегура, Серджо Кастелланос, Хосе Луис Де Мадарьяга, Иван Ренедо, Конча Веласко, Хавьер Ботет, Мария Бальестерос, Роза Альварес
О фильме: Действие развернётся в 1970-х годах в Мадриде. Большая семья Ольмедо переезжает в столицу в надежде на лучшую жизнь. Герои заезжают в просторную квартиру, где осталась старая мебель от прежних жильцов. Но вскоре родственники осознают, что в их жилище обосновалось нечто жуткое. Сначала исчезает младший сын, за которым должна была присматривать дочь-подросток. Вскоре старший брат становится одержим девушкой, которую постоянно видит в окне, пока она передает странные послания, а дедушка начинает говорить странные вещи. И тогда становится очевидно, что без посторонней помощи не обойтись, но полиция не в силах разобраться в происходящем, а значит семье придется самостоятельно разгадывать тайну дома...

Выпущено: Испания, Франция / 4 Cats Pictures, Atresmedia Cine, Bambú Producciones
Продолжительность: 01:44:38
Озвучивание: Дублированное | iTunes
Файл
Формат: MKV
Качество: BDRip-AVC
Исходник: Malasana.32.2020.BDRemux.THD-potroks
Видео: 720x302 (2.40:1), 23.976 fps, x264 ~930 kbps avg, 0.178 bit/pixel
Звук: 48 kHz, HE-AAC, 2 ch, ~64 kbps avg
Субтитры: Russian (Forced), English, Spanish

MediaInfo:

General
Unique ID : 32018538100327721904572000621413035038 (0x18168BCF31E18A42F1D9DE89BB606C1E)
Complete name : D:OlLanDGroupMalasana.32.2020.BDRip(AVC).745Mb.OlLanDGroup.mkv
Format : Matroska
Format version : Version 4
File size : 745 MiB
Duration : 1 h 44 min
Overall bit rate : 995 kb/s
Movie name : Заклятье. Дом 32 / Malasaña 32 (2020) BDRip-AVC от OlLanDGroup#Skandar
Encoded date : UTC 2020-11-22 02:45:02
Writing application : mkvmerge v31.0.0 ('Dolores In A Shoestand') 64-bit
Writing library : libebml v1.3.6 + libmatroska v1.4.9
Video
ID : 1
Format : AVC
Format/Info : Advanced Video Codec
Format profile : High@L4.1
Format settings : CABAC / 10 Ref Frames
Format settings, CABAC : Yes
Format settings, ReFrames : 10 frames
Codec ID : V_MPEG4/ISO/AVC
Duration : 1 h 44 min
Bit rate : 930 kb/s
Width : 720 pixels
Height : 302 pixels
Display aspect ratio : 2.40:1
Frame rate mode : Constant
Frame rate : 23.976 (24000/1001) FPS
Color space : YUV
Chroma subsampling : 4:2:0
Bit depth : 8 bits
Scan type : Progressive
Bits/(Pixel*Frame) : 0.178
Stream size : 696 MiB (93%)
Title : Заклятье. Дом 32 / Malasaña 32 (2020) BDRip-AVC от OlLanDGroup#Skandar
Writing library : x264 core 146 r2538 121396c
Encoding settings : cabac=1 / ref=10 / deblock=1:-3:-3 / analyse=0x3:0x133 / me=umh / subme=11 / psy=1 / psy_rd=0.95:0.05 / mixed_ref=1 / me_range=32 / chroma_me=1 / trellis=2 / 8x8dct=1 / cqm=0 / deadzone=21,11 / fast_pskip=0 / chroma_qp_offset=-3 / threads=6 / lookahead_threads=1 / sliced_threads=0 / nr=0 / decimate=0 / interlaced=0 / bluray_compat=0 / constrained_intra=0 / bframes=10 / b_pyramid=2 / b_adapt=2 / b_bias=0 / direct=3 / weightb=1 / open_gop=0 / weightp=2 / keyint=240 / keyint_min=23 / scenecut=40 / intra_refresh=0 / rc_lookahead=40 / rc=2pass / mbtree=1 / bitrate=930 / ratetol=1.0 / qcomp=0.60 / qpmin=0 / qpmax=69 / qpstep=4 / cplxblur=20.0 / qblur=0.5 / vbv_maxrate=50000 / vbv_bufsize=62500 / nal_hrd=none / filler=0 / ip_ratio=1.40 / aq=1:1.00
Language : Spanish
Default : Yes
Forced : No
Audio
ID : 2
Format : AAC LC SBR
Format/Info : Advanced Audio Codec Low Complexity with Spectral Band Replication
Commercial name : HE-AAC
Format settings : Explicit
Codec ID : A_AAC-2
Duration : 1 h 44 min
Bit rate : 64.0 kb/s
Channel(s) : 2 channels
Channel layout : L R
Sampling rate : 48.0 kHz
Frame rate : 23.438 FPS (2048 SPF)
Compression mode : Lossy
Delay relative to video : 31 ms
Stream size : 47.9 MiB (6%)
Title : Dub | iTunes
Language : Russian
Default : Yes
Forced : No
Text #1
ID : 3
Format : UTF-8
Codec ID : S_TEXT/UTF8
Codec ID/Info : UTF-8 Plain Text
Duration : 1 h 17 min
Bit rate : 0 b/s
Count of elements : 18
Stream size : 502 Bytes (0%)
Title : Forced
Language : Russian
Default : Yes
Forced : No
Text #2
ID : 4
Format : UTF-8
Codec ID : S_TEXT/UTF8
Codec ID/Info : UTF-8 Plain Text
Duration : 1 h 42 min
Bit rate : 29 b/s
Count of elements : 798
Stream size : 22.5 KiB (0%)
Title : Full
Language : English
Default : No
Forced : No
Text #3
ID : 5
Format : UTF-8
Codec ID : S_TEXT/UTF8
Codec ID/Info : UTF-8 Plain Text
Duration : 1 h 42 min
Bit rate : 32 b/s
Count of elements : 798
Stream size : 24.8 KiB (0%)
Title : Full
Language : Spanish
Default : No
Forced : No
Menu
00:07:48.000 : es:Capítulo 1
00:12:24.000 : es:Capítulo 2
00:21:26.000 : es:Capítulo 3
00:28:36.000 : es:Capítulo 4
00:34:42.000 : es:Capítulo 5
00:39:14.000 : es:Capítulo 6
00:45:51.000 : es:Capítulo 7
00:52:19.000 : es:Capítulo 8
00:57:14.000 : es:Capítulo 9
01:03:17.000 : es:Capítulo 10 / es:Capítulo 11
01:12:52.000 : es:Capítulo 12
01:18:13.000 : es:Capítulo 13
01:23:51.000 : es:Capítulo 14
01:30:22.000 : es:Capítulo 15
01:39:16.000 : es:Capítulo 16
01:41:36.000 : es:Creditos

Скриншоты


[Цитировать]



Показать сообщения:    

Текущее время: 26-Июл 04:00

Часовой пояс: UTC + 6


Вы не можете начинать темы
Вы не можете отвечать на сообщения
Вы не можете редактировать свои сообщения
Вы не можете удалять свои сообщения
Вы не можете голосовать в опросах
Вы не можете прикреплять файлы к сообщениям
Вы не можете скачивать файлы

!ВНИМАНИЕ!
Сайт не предоставляет электронные версии произведений, а занимается лишь коллекционированием и каталогизацией ссылок, присылаемых и публикуемых на форуме нашими читателями. Если вы являетесь правообладателем какого-либо представленного материала и не желаете, чтобы ссылка на него находилась в нашем каталоге, свяжитесь с нами, и мы незамедлительно удалим ее. Файлы для обмена на трекере предоставлены пользователями сайта, и администрация не несет ответственности за их содержание. Просьба не заливать файлы, защищенные авторскими правами, а также файлы нелегального содержания!