***Уважаемые пользователи и гости !!! Сайт переехал на новый домен Torrents-club.info. Просьба изменить ваши закладки! ***
 
[ Сегодня идет свободное скачивание без начисления Download ]


Статистика раздачи
Скачал: [ 10 ]
 
   
 
 
 
 
Конь Юлий и большие скачки (2020) Информация о фильме
Название: Конь Юлий и большие скачки
Год выхода: 2020
Жанр: Мультфильм, приключения
Режиссер: Дарина Шмидт, Константин Феоктистов
Роли озвучивают: Дмитрий Высоцкий, Сергей Маковецкий, Сергей Бурунов, Олег Куликович, Валерий Соловьев, Дмитрий Быковский-Ромашов, Анатолий Петров, Мария Цветкова-Овсянникова, Лия Медведева, Юлия Зоркина
О фильме:
Дождались: говорящий конь Юлий влюбился! И на этот раз все серьезно – он просит руки, то есть копыта​ королевской кобылы по имени Звезда Востока у султана Рашида.
Но сватать кобылу королевских кровей может только особа царских кровей.​ Юлий обращается к князю Киевскому за помощью, но получает отказ. Но наш жених не намерен отказываться от любви. Он похищает князя и насильно везет его к султану, на сватовство. И у богатырей​ тоже​ есть дело в восточной стороне. Все сойдутся на больших скачках, где победитель получит всё.

Страна: Россия
Студия: Кинокомпания CTB / СТВ, Анимационная студия «Мельница»
Продолжительность: 01:13:32
Перевод: Не требуется
Файл
Качество: WEB-DL 1080p
Формат: MKV
Кодек: MPEG-4 AVC
Видео: 1920x1080 (16:9), 25 fps, MPEG-4 AVC, 5123 Кbps avg, 0.099 bit/pixel
Аудио: AC3, 48 kHz, 6 ch, ~384.00 kbps avg | русский |
Субтитры: Отсутствуют

Релиз:

Инфо-файл

Общее
Уникальный идентификатор : 54685241367428647803106537718607270569 (0x2923FE901E0FCC32171C595B51D052A9)
Полное имя : Horse.Julius.and.Big.Horse.Racing.2020.1080p.WEBDL.MegaPeer.mkv
Формат : Matroska
Версия формата : Version 4
Размер файла : 2,83 Гбайт
Продолжительность : 1 ч. 13 м.
Общий поток : 5 509 Кбит/сек
Название фильма : Конь Юлий и большие скачки (2020) от MegaPeer
Дата кодирования : UTC 2021-02-11 00:26:21
Программа кодирования : mkvmerge v47.0.0 ('Black Flag') 64-bit
Библиотека кодирования : libebml v1.3.10 + libmatroska v1.5.2
Обложка : Yes
Attachments : cover.jpg
Видео
Идентификатор : 1
Формат : AVC
Формат/Информация : Advanced Video Codec
Профиль формата : High@L4
Настройки формата : CABAC / 4 Ref Frames
Параметр CABAC формата : Да
Параметр RefFrames формата : 4 кадра
Идентификатор кодека : V_MPEG4/ISO/AVC
Продолжительность : 1 ч. 13 м.
Битрейт : 5 123 Кбит/сек
Ширина : 1 920 пикселей
Высота : 1 080 пикселей
Соотношение сторон : 16:9
Режим частоты кадров : Постоянный
Частота кадров : 25,000 кадров/сек
Цветовое пространство : YUV
Субдискретизация насыщенности : 4:2:0
Битовая глубина : 8 бит
Тип развёртки : Прогрессивная
Бит/(Пиксели*Кадры) : 0.099
Размер потока : 2,63 Гбайт (93%)
Язык : Russian
Default : Да
Forced : Нет
Аудио
Идентификатор : 2
Формат : AC-3
Формат/Информация : Audio Coding 3
Коммерческое название : Dolby Digital
Идентификатор кодека : A_AC3
Продолжительность : 1 ч. 13 м.
Вид битрейта : Постоянный
Битрейт : 384 Кбит/сек
Каналы : 6 каналов
Channel layout : L R C LFE Ls Rs
Частота : 48,0 КГц
Частота кадров : 31,250 кадров/сек (1536 SPF)
Метод сжатия : С потерями
Задержка видео : 16 мс.
Размер потока : 202 Мбайт (7%)
Язык : Russian
Service kind : Complete Main
Default : Да
Forced : Да

Скриншоты

[Цитировать]



Показать сообщения:    

Текущее время: 09-Мар 04:40

Часовой пояс: UTC + 6


Вы не можете начинать темы
Вы не можете отвечать на сообщения
Вы не можете редактировать свои сообщения
Вы не можете удалять свои сообщения
Вы не можете голосовать в опросах
Вы не можете прикреплять файлы к сообщениям
Вы не можете скачивать файлы

!ВНИМАНИЕ!
Сайт не предоставляет электронные версии произведений, а занимается лишь коллекционированием и каталогизацией ссылок, присылаемых и публикуемых на форуме нашими читателями. Если вы являетесь правообладателем какого-либо представленного материала и не желаете, чтобы ссылка на него находилась в нашем каталоге, свяжитесь с нами, и мы незамедлительно удалим ее. Файлы для обмена на трекере предоставлены пользователями сайта, и администрация не несет ответственности за их содержание. Просьба не заливать файлы, защищенные авторскими правами, а также файлы нелегального содержания!