***Уважаемые пользователи и гости !!! Сайт переехал на новый домен Torrents-club.info. Просьба изменить ваши закладки! ***
 
[ Сегодня идет свободное скачивание без начисления Download ]


Статистика раздачи
Нет
 
   
 
 
 
 
Глубоководный горизонт / Deepwater Horizon (2016) BDRip - HEVC 1080p | 60 fps Год выпуска: 2016
Страна: США, Гонконг
Жанр: боевик, триллер, драма, история
Продолжительность: 01:47:17
Перевод: Дубляж
Субтитры: нет
Режиссер: Питер Берг
В ролях:
Марк Уолберг, Курт Рассел, Джон Малкович, Джина Родригез, Дилан О’Брайен, Кейт Хадсон, Итан Сапли, Генри Фрост,Джереми Сэнд, Дуглас М. Гриффин.
Описание:
Отправляясь на очередную вахту и прощаясь с семьями, они не подозревали, что могут не вернуться… Это основанная на реальных событиях история о страшной аварии на нефтяной платформе «Глубоководный горизонт», которая произошла в 2010 году в Мексиканском заливе. Хроника беспримерного мужества и отваги перед лицом одной из самых страшных техногенных катастроф в мировой истории.
Мировая премьера: 13 сентября 2016

Качество: BDRip 1080p by DD2D3
Формат: MKV
Видео кодек: V_MPEGH/ISO/HEVC
Аудио кодек: AC3
Видео: V_MPEGH/ISO/HEVC; 1920x800 (2.40:1); 4000 Kbps; 59,940 fps; 0,043 bpp
Аудио: русский; AC3; 640 Kbps; CBR; 6 ch
fНавигация по главам: есть

MediaInfo:

General
Unique ID : 216834681337211301986071197939392704517 (0xA320D7300C3700B79A4F5C00E285F005)
Complete name : D:\Deepwater Horizon (2016) BDRip - HEVC 1080p 10 bit 60 FPS .mkv
Format : Matroska
Format version : Version 4
File size : 3.48 GiB
Duration : 1 h 47 min
Overall bit rate : 4 647 kb/s
Movie name : Rip by from DD2D3
Encoded date : UTC 2021-01-15 19:10:47
Writing application : mkvmerge v10.0.0 ('To Drown In You') 32bit
Writing library : libebml v1.3.4 + libmatroska v1.4.5
Attachments : poster
Video
ID : 1
Format : HEVC
Format/Info : High Efficiency Video Coding
Format profile : Main 10@L4.1@Main
Codec ID : V_MPEGH/ISO/HEVC
Duration : 1 h 47 min
Bit rate : 4 001 kb/s
Width : 1 920 pixels
Height : 800 pixels
Display aspect ratio : 2.40:1
Frame rate mode : Constant
Frame rate : 59.940 (60000/1001) FPS
Color space : YUV
Chroma subsampling : 4:2:0
Bit depth : 10 bits
Bits/(Pixel*Frame) : 0.043
Stream size : 3.00 GiB (86%)
Writing library : x265 2.3+33-0b7d54dbb71a87a0:[Windows][MSVC 1800][64 bit] 10bit: KG7x [x265.ru]
Encoding settings : cpuid=1173503 / frame-threads=2 / numa-pools=4 / wpp / no-pmode / no-pme / no-psnr / no-ssim / log-level=2 / input-csp=1 / input-res=1920x800 / interlace=0 / total-frames=385858 / level-idc=41 / high-tier=1 / uhd-bd=0 / ref=3 / no-allow-non-conformance / no-repeat-headers / annexb / no-aud / no-hrd / info / hash=0 / no-temporal-layers / open-gop / min-keyint=25 / keyint=250 / bframes=4 / b-adapt=2 / b-pyramid / bframe-bias=0 / rc-lookahead=20 / lookahead-slices=5 / scenecut=40 / no-intra-refresh / ctu=64 / min-cu-size=8 / no-rect / no-amp / max-tu-size=32 / tu-inter-depth=1 / tu-intra-depth=1 / limit-tu=0 / rdoq-level=0 / dynamic-rd=0.00 / no-ssim-rd / signhide / no-tskip / nr-intra=0 / nr-inter=0 / no-constrained-intra / strong-intra-smoothing / max-merge=2 / limit-refs=3 / no-limit-modes / me=1 / subme=2 / merange=57 / temporal-mvp / weightp / no-weightb / no-analyze-src-pics / deblock=0:0 / sao / no-sao-non-deblock / rd=3 / no-early-skip / rskip / no-fast-intra / no-tskip-fast / no-cu-lossless / no-b-intra / rdpenalty=0 / psy-rd=2.00 / psy-rdoq=0.00 / no-rd-refine / analysis-mode=0 / no-lossless / cbqpoffs=0 / crqpoffs=0 / rc=abr / bitrate=4000 / qcomp=0.60 / qpstep=4 / stats-write=0 / stats-read=2 / cplxblur=20.0 / qblur=0.5 / ipratio=1.40 / pbratio=1.30 / aq-mode=1 / aq-strength=1.00 / cutree / zone-count=0 / no-strict-cbr / qg-size=32 / no-rc-grain / qpmax=69 / qpmin=0 / sar=1 / overscan=0 / videoformat=5 / range=0 / colorprim=2 / transfer=2 / colormatrix=2 / chromaloc=0 / display-window=0 / max-cll=0,0 / min-luma=0 / max-luma=1023 / log2-max-poc-lsb=8 / vui-timing-info / vui-hrd-info / slices=1 / opt-qp-pps / opt-ref-list-length-pps / no-multi-pass-opt-rps / scenecut-bias=0.05 / no-opt-cu-delta-qp / no-aq-motion / no-hdr / no-hdr-opt / refine-level=5 / no-limit-sao
Default : Yes
Forced : No
Audio
ID : 2
Format : AC-3
Format/Info : Audio Coding 3
Commercial name : Dolby Digital
Codec ID : A_AC3
Duration : 1 h 47 min
Bit rate mode : Constant
Bit rate : 640 kb/s
Channel(s) : 6 channels
Channel layout : L R C LFE Ls Rs
Sampling rate : 48.0 kHz
Frame rate : 31.250 FPS (1536 SPF)
Compression mode : Lossy
Stream size : 491 MiB (14%)
Title : Dub [License]
Language : Russian
Service kind : Complete Main
Default : Yes
Forced : No
Menu
00:00:00.000 : en:Chapter 01
00:07:01.212 : en:Chapter 03
00:12:32.626 : en:Chapter 05
00:19:34.464 : en:Chapter 07
00:27:17.218 : en:Chapter 09
00:34:52.632 : en:Chapter 11
00:44:29.833 : en:Chapter 13
00:48:04.923 : en:Chapter 15
00:53:47.599 : en:Chapter 17
00:58:05.148 : en:Chapter 19
01:05:44.607 : en:Chapter 21
01:10:06.869 : en:Chapter 23
01:16:02.933 : en:Chapter 25
01:20:44.381 : en:Chapter 27
01:27:37.668 : en:Chapter 29
01:31:37.825 : en:Chapter 31
01:47:17.222 : en:Chapter 32

[Цитировать]



Показать сообщения:    

Текущее время: 05-Мар 22:13

Часовой пояс: UTC + 6


Вы не можете начинать темы
Вы не можете отвечать на сообщения
Вы не можете редактировать свои сообщения
Вы не можете удалять свои сообщения
Вы не можете голосовать в опросах
Вы не можете прикреплять файлы к сообщениям
Вы не можете скачивать файлы

!ВНИМАНИЕ!
Сайт не предоставляет электронные версии произведений, а занимается лишь коллекционированием и каталогизацией ссылок, присылаемых и публикуемых на форуме нашими читателями. Если вы являетесь правообладателем какого-либо представленного материала и не желаете, чтобы ссылка на него находилась в нашем каталоге, свяжитесь с нами, и мы незамедлительно удалим ее. Файлы для обмена на трекере предоставлены пользователями сайта, и администрация не несет ответственности за их содержание. Просьба не заливать файлы, защищенные авторскими правами, а также файлы нелегального содержания!