***Уважаемые пользователи и гости !!! Сайт переехал на новый домен Torrents-club.info. Просьба изменить ваши закладки! ***
 
[ Сегодня идет свободное скачивание без начисления Download ]


Статистика раздачи
Скачал: [ 6 ]
 
   
 
 
 
 
ОгоньИнформация о фильме
Название: Огонь
Год выхода: 2020
Жанр: Драма, приключения
Режиссер: Алексей Нужный
В ролях: Константин Хабенский, Виктор Добронравов, Тихон Жизневский, Роман Курцын, Антон Богданов, Андрей Смоляков, Стася Милославская, Ирина Горбачёва, Иван Янковский, Александр Грашин, Юрий Кузнецов, Татьяна Бедова, Татьяна Тузова, Евгения Дмитриева
О фильме:
Героическая история о пожарных и спасателях. То, что обычно называют подвигом, для них — привычные будни, если только можно привыкнуть к смертельной опасности и предельному риску. Когда людям, попавшим в беду, кажется, что помощи ждать неоткуда, на выручку приходят спасатели, чтобы встать на пути беспощадной стихии.

Страна: Россия
Студия: Студия Тритэ
Продолжительность: 02:11:43
Язык: Русский | iTunes
Доп. информация: Источник видео КиноПоиск HD (чистый видеоряд)
Примечание: Без рекламы
Файл
Формат: MKV
Качество: WEB-DL 1080p
Видео: MPEG-4 AVC, 5217 Кбит/с, 1920х804
Звук: AC3, 6 ch, 384 Кбит/с
Субтитры: Отсутствуют
Дополнительно: Сохранены оригинальные чаптеры
Семпл

Скриншоты

MI

General
Unique ID : 240203683412860009130936574945511834321 (0xB4B58BF226DF1357ADA92558352B82D1)
Complete name : Ogon.2020.1080p.KP.WEB-DL.DD5.1.H.264-EniaHD.mkv
Format : Matroska
Format version : Version 4
File size : 5.15 GiB
Duration : 2 h 11 min
Overall bit rate : 5 603 kb/s
Encoded date : UTC 2021-02-22 21:59:26
Writing application : mkvmerge v53.0.0 ('Fool's Gold') 64-bit
Writing library : libebml v1.4.1 + libmatroska v1.6.2
Video
ID : 1
Format : AVC
Format/Info : Advanced Video Codec
Format profile : High@L4
Format settings : CABAC / 5 Ref Frames
Format settings, CABAC : Yes
Format settings, Reference frames : 5 frames
Codec ID : V_MPEG4/ISO/AVC
Duration : 2 h 11 min
Bit rate : 5 217 kb/s
Nominal bit rate : 6 000 kb/s
Width : 1 920 pixels
Height : 804 pixels
Display aspect ratio : 2.40:1
Frame rate mode : Constant
Frame rate : 24.000 FPS
Color space : YUV
Chroma subsampling : 4:2:0
Bit depth : 8 bits
Scan type : Progressive
Bits/(Pixel*Frame) : 0.141
Stream size : 4.80 GiB (93%)
Writing library : x264 core 157 r2969 d4099dd
Encoding settings : cabac=1 / ref=5 / deblock=1:0:0 / analyse=0x3:0x133 / me=umh / subme=10 / psy=1 / psy_rd=1.00:0.00 / mixed_ref=1 / me_range=24 / chroma_me=1 / trellis=2 / 8x8dct=1 / cqm=0 / deadzone=21,11 / fast_pskip=1 / chroma_qp_offset=-2 / threads=25 / lookahead_threads=4 / sliced_threads=0 / nr=0 / decimate=1 / interlaced=0 / bluray_compat=0 / stitchable=1 / constrained_intra=0 / bframes=8 / b_pyramid=2 / b_adapt=2 / b_bias=0 / direct=3 / weightb=1 / open_gop=0 / weightp=2 / keyint=96 / keyint_min=9 / scenecut=40 / intra_refresh=0 / rc_lookahead=60 / rc=2pass / mbtree=1 / bitrate=6000 / ratetol=1.0 / qcomp=0.60 / qpmin=0 / qpmax=69 / qpstep=4 / cplxblur=20.0 / qblur=0.5 / vbv_maxrate=6600 / vbv_bufsize=1100 / nal_hrd=none / filler=0 / ip_ratio=1.40 / aq=1:1.00
Default : Yes
Forced : No
Audio
ID : 2
Format : AC-3
Format/Info : Audio Coding 3
Commercial name : Dolby Digital
Codec ID : A_AC3
Duration : 2 h 11 min
Bit rate mode : Constant
Bit rate : 384 kb/s
Channel(s) : 6 channels
Channel layout : L R C LFE Ls Rs
Sampling rate : 48.0 kHz
Frame rate : 31.250 FPS (1536 SPF)
Compression mode : Lossy
Stream size : 362 MiB (7%)
Language : Russian
Service kind : Complete Main
Default : Yes
Forced : No
Menu
00:00:00.000 : ru:Глава 1
00:04:37.083 : ru:Глава 2
00:10:44.124 : ru:Глава 3
00:18:59.124 : ru:Глава 4
00:24:58.832 : ru:Глава 5
00:29:49.540 : ru:Глава 6
00:38:08.998 : ru:Глава 7
00:48:28.206 : ru:Глава 8
00:53:17.956 : ru:Глава 9
01:00:08.414 : ru:Глава 10
01:07:34.872 : ru:Глава 11
01:14:45.080 : ru:Глава 12
01:22:05.496 : ru:Глава 13
01:34:41.996 : ru:Глава 14
01:50:36.162 : ru:Глава 15
01:55:21.995 : ru:Глава 16

[Цитировать]



Показать сообщения:    

Текущее время: 28-Фев 01:01

Часовой пояс: UTC + 6


Вы не можете начинать темы
Вы не можете отвечать на сообщения
Вы не можете редактировать свои сообщения
Вы не можете удалять свои сообщения
Вы не можете голосовать в опросах
Вы не можете прикреплять файлы к сообщениям
Вы не можете скачивать файлы

!ВНИМАНИЕ!
Сайт не предоставляет электронные версии произведений, а занимается лишь коллекционированием и каталогизацией ссылок, присылаемых и публикуемых на форуме нашими читателями. Если вы являетесь правообладателем какого-либо представленного материала и не желаете, чтобы ссылка на него находилась в нашем каталоге, свяжитесь с нами, и мы незамедлительно удалим ее. Файлы для обмена на трекере предоставлены пользователями сайта, и администрация не несет ответственности за их содержание. Просьба не заливать файлы, защищенные авторскими правами, а также файлы нелегального содержания!