***Уважаемые пользователи и гости !!! Сайт переехал на новый домен Torrents-club.info. Просьба изменить ваши закладки! ***
 
[ Сегодня идет свободное скачивание без начисления Download ]


Статистика раздачи
Качаю: [ 1 ]
Скачал: [ 2 ]
 
   
 
 
 
 
Видеокурс Создание сборки Windows 8 - Автор: UralSOFT
Жанр: Программирование
Год выпуска: 2013
Описание:
Видео адаптировано для просмотра на ноутбуках - нетбуках.
Из него вы поймете..что для каждой версии Windows нужен свой WAIK , Windows KITS и тд.
Рекомендуется к просмотру тем, кто ранее скачал и смотрел курс по созданию Windows 7
Данный видеокурс поможет вам понять азы создания простой сборки "под себя"
Добавить необходимые вам программы,обновить систему , настроить некоторые параметры.
Что то добавить , а что то удалить.
В раздаче присутствует два образа.Один с уроками, второй с необходимыми программами!Все что демонстрируется в видеоуроке - присутствует на диске с программами, то есть, кому интересно- смотрите видео и делаете свою сборку. Никаких заумных выражений, все объясняется простым- доступным языком!
Звук к сожалению вышел не очень,но можете сами настроить под себя.

Продолжение описания:

К сожалению всем желающим у кого будут трудности , я помочь просто физически не смогу..по этому если и будете обращаться с вопросами, то только в крайнем случае.Если есть время- я всегда помогу!
Смонтировать образ на виртуальный привод программой UltraISO или аналогичными. Запускать курс или параметрами автозапуска или файлом uralsoft.exe
Некоторые ролики есть на Youtube
Это мой настоящий и единственный полный видеокурс. Желаю вам успехов в ваших познаниях и начинаниях!
Продолжительность: ~04:00:00
Качество видео: PCRec
Видео: TSSC, 1024х768, ~1586 kbps
Аудио: PCM, 1 ch, 352.8 kbps

MediaInfo:

General
Format : AVI
Format/Info : Audio Video Interleave
File size : 92.9 MiB
Duration : 8 min 11 s
Overall bit rate : 1 586 kb/s
Video
ID : 0
Format : TechSmith
Codec ID : tscc
Codec ID/Info : TechSmith Screen Capture
Duration : 8 min 11 s
Bit rate : 1 227 kb/s
Width : 1 024 pixels
Height : 768 pixels
Display aspect ratio : 4:3
Frame rate : 15.000 FPS
Bits/(Pixel*Frame) : 0.104
Stream size : 71.9 MiB (77%)
Audio
ID : 1
Format : PCM
Format settings : Little / Signed
Codec ID : 1
Duration : 8 min 11 s
Bit rate mode : Constant
Bit rate : 352.8 kb/s
Channel(s) : 1 channel
Sampling rate : 22.05 kHz
Bit depth : 16 bits
Stream size : 20.7 MiB (22%)
Alignment : Aligned on interleaves
Interleave, duration : 999 ms (14.99 video frames)
Interleave, preload duratio : 749 ms
Скриншоты:

[Цитировать]



Показать сообщения:    

Текущее время: 13-Апр 18:47

Часовой пояс: UTC + 6


Вы не можете начинать темы
Вы не можете отвечать на сообщения
Вы не можете редактировать свои сообщения
Вы не можете удалять свои сообщения
Вы не можете голосовать в опросах
Вы не можете прикреплять файлы к сообщениям
Вы не можете скачивать файлы

!ВНИМАНИЕ!
Сайт не предоставляет электронные версии произведений, а занимается лишь коллекционированием и каталогизацией ссылок, присылаемых и публикуемых на форуме нашими читателями. Если вы являетесь правообладателем какого-либо представленного материала и не желаете, чтобы ссылка на него находилась в нашем каталоге, свяжитесь с нами, и мы незамедлительно удалим ее. Файлы для обмена на трекере предоставлены пользователями сайта, и администрация не несет ответственности за их содержание. Просьба не заливать файлы, защищенные авторскими правами, а также файлы нелегального содержания!