***Уважаемые пользователи и гости !!! Сайт переехал на новый домен Torrents-club.info. Просьба изменить ваши закладки! ***
 
[ Сегодня идет свободное скачивание без начисления Download ]


Статистика раздачи
Нет
 
   
 
 
 
 
Трансформеры: Эпоха истребления / Transformers: Age Of Extinction (2014) [4K, HEVC, HDR, Dolby Vision / Blu-Ray Remux] (2160p) Год выпуска: 2014
Жанр: Фантастика, боевик, приключения
Выпущено: США, Китай, Paramount Pictures, Hasbro, Di Bonaventura Pictures
Режиссер: Майкл Бэй
Продолжительность: 02:45:07
Перевод: Дублированный
Субтитры: Русские, английские
возраст 12+

В ролях:
Марк Уолберг, Никола Пельтц, Стэнли Туччи, Келси Грэммер, София Майлс, Эбигейл Клейн, Джек Рейнор, Титус Уэлливер, Питер Каллен, ТиДжей Миллер

О фильме:
Автоботы и десептиконы покинули нашу планету после того, как полностью разрушили ее. Людям осталось собирать по кусочкам то, что еще можно было собрать, но каждый понимал, что в этом нет никакого смысла, поскольку восстановить былую мощь цивилизации просто невозможно. Но группа из нескольких влиятельных бизнесменов и выдающихся ученых собирается извлечь уроки из печального прошлого и создать новейшие технологии, о которых ранее никто даже подумать не мог. Они прекрасно понимают, что их ждет очень нелегкая работа и верят в свой успех. Однако у них остается очень мало времени, поскольку Земля оказывается под прицелом мощных древнейших трансформеров, намеренных окончательно уничтожить человечество...
Трансформеры: Эпоха истребления (2014) дублированный трейлер
Техданные
Качество: Blu-Ray Remux (2160p)
Видео: MPEG-H HEVC, 58 Мбит/с, 3840x2160
Аудио: Русский (AC3, 6 ch, 640 Кбит/с), (DTS-HD MA, 8 ch, 5211 Кбит/с), английский (TrueHD Dolby Atmos, 8 ch, 5025 Кбит/с), (AC3, 6 ch, 640 Кбит/с)

Релиз

Релиз от Dolby Vision Torrents
Релиз в формате Dolby Vision в контейнере MKV(Profile 8) для совместимости со всеми поддерживаемыми DV устройствами: nVidia Shield Pro 2019, Zidoo/Dune на SOC Realtek RTD1619DR, Ugoos AM6 Plus, Sony XG/XH. Не подтверждено ТВ Philips на Android TV.
Плееры Android TV с поддержкой Dolby Vision: ExoPlayer, ViMu Media Player for TV 8.8.8 и выше, Kodi 19 и выше, Plex, Just Player, Emby.
Субтитры: русские (полные, форс.), английские (полные, SDH, SDH-Colored)
/spoiler]

MediaInfo:

Общее
Уникальный идентификатор                 : 271523465309509009170494513849164702443 (0xCC45846A1FF86C1D0D7C10D52D0122EB)
Полное имя                               : \\SLID-NAS\Films\Transformers.Age.of.Extinction.2014.UHD.BDREMUX.2160p.HDR.DV.mkv
Формат                                   : Matroska
Версия формата                           : Version 2
Размер файла                             : 80,2 Гбайт
Продолжительность                        : 2 ч. 45 м.
Режим общего битрейта                    : Переменный
Общий поток                              : 69,5 Мбит/сек
Название фильма                          : Transformers.Age.of.Extinction.2014.UHD.BDREMUX.2160p.HDR.DV
Дата кодирования                         : UTC 2021-02-16 07:21:57
Программа кодирования                    : MakeMKV v1.15.4 win(x64-release)
Библиотека кодирования                   : libmakemkv v1.15.4 (1.3.10/1.5.2) win(x64-release)
Видео
Идентификатор                            : 1
Формат                                   : HEVC
Формат/Информация                        : High Efficiency Video Coding
Профиль формата                          : Main 10@L5.1@High
HDR format                               : Dolby Vision, Version 1.0, dvhe.08.06, BL+RPU, Blu-ray compatible / SMPTE ST 2086, HDR10 compatible
Идентификатор кодека                     : V_MPEGH/ISO/HEVC
Продолжительность                        : 2 ч. 45 м.
Битрейт                                  : 58,0 Мбит/сек
Ширина                                   : 3 840 пикселей
Высота                                   : 2 160 пикселей
Соотношение сторон                       : 16:9
Режим частоты кадров                     : Постоянный
Частота кадров                           : 23,976 (24000/1001) кадра/сек
Цветовое пространство                    : YUV
Субдискретизация насыщенности            : 4:2:0 (Type 2)
Битовая глубина                          : 10 бит
Бит/(Пиксели*Кадры)                      : 0.292
Размер потока                            : 66,9 Гбайт (83%)
Язык                                     : English
Default                                  : Нет
Forced                                   : Нет
Цветовой диапазон                        : Limited
Основные цвета                           : BT.2020
Характеристики трансфера                 : PQ
Коэффициенты матрицы                     : BT.2020 non-constant
Mastering display color primaries        : Display P3
Mastering display luminance              : min: 0.0001 cd/m2, max: 1000 cd/m2
Аудио #1
Идентификатор                            : 2
Формат                                   : AC-3
Формат/Информация                        : Audio Coding 3
Коммерческое название                    : Dolby Digital
Идентификатор кодека                     : A_AC3
Продолжительность                        : 2 ч. 45 м.
Вид битрейта                             : Постоянный
Битрейт                                  : 640 Кбит/сек
Каналы                                   : 6 каналов
Channel layout                           : L R C LFE Ls Rs
Частота                                  : 48,0 КГц
Частота кадров                           : 31,250 кадров/сек (1536 SPF)
Метод сжатия                             : С потерями
Размер потока                            : 756 Мбайт (1%)
Заголовок                                : Dub
Язык                                     : Russian
Service kind                             : Complete Main
Default                                  : Да
Forced                                   : Нет
Аудио #2
Идентификатор                            : 3
Формат                                   : DTS XLL
Формат/Информация                        : Digital Theater Systems
Коммерческое название                    : DTS-HD Master Audio
Идентификатор кодека                     : A_DTS
Продолжительность                        : 2 ч. 45 м.
Вид битрейта                             : Переменный / Постоянный
Битрейт                                  : 5 211 Кбит/сек / 768 Кбит/сек
Каналы                                   : 8 каналов / 6 каналов
Channel layout                           : C L R LFE Lb Rb Lss Rss / C L R Ls Rs LFE
Частота                                  : 48,0 КГц
Частота кадров                           : 93,750 кадра/сек (512 SPF)
Битовая глубина                          : 24 бит
Метод сжатия                             : Без потерь / Lossy
Размер потока                            : 6,01 Гбайт (7%)
Заголовок                                : Dub
Язык                                     : Russian
Default                                  : Нет
Forced                                   : Нет
Аудио #3
Идентификатор                            : 4
ID in the original source medium         : 4352 (0x1100)
Формат                                   : MLP FBA 16-ch
Формат/Информация                        : Meridian Lossless Packing FBA with 16-channel presentation
Коммерческое название                    : Dolby TrueHD with Dolby Atmos
Идентификатор кодека                     : A_TRUEHD
Продолжительность                        : 2 ч. 45 м.
Вид битрейта                             : Переменный
Битрейт                                  : 5 025 Кбит/сек
Максимальный битрейт                     : 8 262 Кбит/сек
Каналы                                   : 8 каналов
Channel layout                           : L R C LFE Ls Rs Lb Rb
Частота                                  : 48,0 КГц
Частота кадров                           : 1 200,000 кадров/сек (40 SPF)
Битовая глубина                          : 24 бит
Метод сжатия                             : Без потерь
Размер потока                            : 5,80 Гбайт (7%)
Заголовок                                : Surround 7.1
Язык                                     : English
Default                                  : Нет
Forced                                   : Нет
Носитель оригинала                       : Blu-ray
Number of dynamic objects                : 11
Bed channel count                        : 1 канал
Bed channel configuration                : LFE
Аудио #4
Идентификатор                            : 5
ID in the original source medium         : 4352 (0x1100)
Формат                                   : AC-3
Формат/Информация                        : Audio Coding 3
Коммерческое название                    : Dolby Digital
Настройки формата                        : Dolby Surround EX
Идентификатор кодека                     : A_AC3
Продолжительность                        : 2 ч. 45 м.
Вид битрейта                             : Постоянный
Битрейт                                  : 640 Кбит/сек
Каналы                                   : 6 каналов
Channel layout                           : L R C LFE Ls Rs
Частота                                  : 48,0 КГц
Частота кадров                           : 31,250 кадров/сек (1536 SPF)
Метод сжатия                             : С потерями
Размер потока                            : 756 Мбайт (1%)
Заголовок                                : Surround 5.1
Язык                                     : English
Service kind                             : Complete Main
Default                                  : Нет
Forced                                   : Нет
Носитель оригинала                       : Blu-ray
Текст #1
Идентификатор                            : 6
Формат                                   : UTF-8
Идентификатор кодека                     : S_TEXT/UTF8
Идентификатор кодека/Информация          : UTF-8 Plain Text
Продолжительность                        : 2 ч. 22 м.
Битрейт                                  : 0 бит/сек
Count of elements                        : 23
Размер потока                            : 924 байт (0%)
Заголовок                                : forced
Язык                                     : Russian
Default                                  : Да
Forced                                   : Нет
Текст #2
Идентификатор                            : 7
Формат                                   : UTF-8
Идентификатор кодека                     : S_TEXT/UTF8
Идентификатор кодека/Информация          : UTF-8 Plain Text
Продолжительность                        : 2 ч. 36 м.
Битрейт                                  : 97 бит/сек
Count of elements                        : 2083
Размер потока                            : 111 Кбайт (0%)
Заголовок                                : full
Язык                                     : Russian
Default                                  : Нет
Forced                                   : Нет
Текст #3
Идентификатор                            : 8
Формат                                   : UTF-8
Идентификатор кодека                     : S_TEXT/UTF8
Идентификатор кодека/Информация          : UTF-8 Plain Text
Продолжительность                        : 2 ч. 34 м.
Битрейт                                  : 62 бит/сек
Count of elements                        : 2189
Размер потока                            : 70,3 Кбайт (0%)
Заголовок                                : full
Язык                                     : English
Default                                  : Нет
Forced                                   : Нет
Текст #4
Идентификатор                            : 9
Формат                                   : UTF-8
Идентификатор кодека                     : S_TEXT/UTF8
Идентификатор кодека/Информация          : UTF-8 Plain Text
Продолжительность                        : 2 ч. 35 м.
Битрейт                                  : 68 бит/сек
Count of elements                        : 2509
Размер потока                            : 78,4 Кбайт (0%)
Заголовок                                : SDH
Язык                                     : English
Default                                  : Нет
Forced                                   : Нет
Текст #5
Идентификатор                            : 10
Формат                                   : UTF-8
Идентификатор кодека                     : S_TEXT/UTF8
Идентификатор кодека/Информация          : UTF-8 Plain Text
Продолжительность                        : 2 ч. 35 м.
Битрейт                                  : 85 бит/сек
Count of elements                        : 2509
Размер потока                            : 97,5 Кбайт (0%)
Заголовок                                : SDH-Colored
Язык                                     : English
Default                                  : Нет
Forced                                   : Нет
Меню
00:00:00.000                             : en:Actic Metal / Texas Metal
00:06:51.577                             : en:Daughter Issues / Father Issues
00:14:33.581                             : en:Ratchet's End
00:21:37.212                             : en:Optimus Awakens
00:30:13.394                             : en:Federal Agents
00:38:45.990                             : en:Optimus Unleashed
00:46:07.848                             : en:On The Road
00:51:39.262                             : en:Autobots United
00:59:09.128                             : en:KSI Headquarters
01:07:48.522                             : en:Discovery, Capture, Rescue
01:15:14.510                             : en:Enemies Emergent
01:23:25.291                             : en:Alien Ship Over Chicago
01:29:14.724                             : en:Onboard
01:37:16.956                             : en:Absconsion
01:44:35.310                             : en:Megatron's Machination
01:51:24.678                             : en:Galvatron Arises
01:57:47.685                             : en:Assassins' Pursuit
02:04:48.230                             : en:Prototypes Strike
02:12:35.572                             : en:Legendary Warriors
02:21:03.997                             : en:Magnetic Weapon
02:28:48.461                             : en:Lockdown Showdown
02:37:09.461                             : en:Credits

Скриншоты

[Цитировать]



Показать сообщения:    

Текущее время: 13-Апр 18:50

Часовой пояс: UTC + 6


Вы не можете начинать темы
Вы не можете отвечать на сообщения
Вы не можете редактировать свои сообщения
Вы не можете удалять свои сообщения
Вы не можете голосовать в опросах
Вы не можете прикреплять файлы к сообщениям
Вы не можете скачивать файлы

!ВНИМАНИЕ!
Сайт не предоставляет электронные версии произведений, а занимается лишь коллекционированием и каталогизацией ссылок, присылаемых и публикуемых на форуме нашими читателями. Если вы являетесь правообладателем какого-либо представленного материала и не желаете, чтобы ссылка на него находилась в нашем каталоге, свяжитесь с нами, и мы незамедлительно удалим ее. Файлы для обмена на трекере предоставлены пользователями сайта, и администрация не несет ответственности за их содержание. Просьба не заливать файлы, защищенные авторскими правами, а также файлы нелегального содержания!