***Уважаемые пользователи и гости !!! Сайт переехал на новый домен Torrents-club.info. Просьба изменить ваши закладки! ***
 
[ Сегодня идет свободное скачивание без начисления Download ]


Статистика раздачи
Скачал: [ 2 ]
 
   
 
 
 
 
Русский рейд (2019)-- Информация о фильме
Название: Русский рейд
Год выхода: 2019
Жанр: Боевик, криминал
Режиссер: Денис Крючков
В ролях:
Иван Котик, Александр Красовский, Илья Антоненко, Владимир Минеев, Никита Кологривый, Софья Озерова, Кирилл Сарычев, Дмитрий Кривочуров, Андрей Семенов, Алексей Максименков
О фильме:
Рейдеры подготовили идеальный план по захвату завода: инсайдеры, подробные чертежи территории, завязки на высшем уровне, компромат на собственников, хакерская поддержка... На их стороне внезапность и прекрасно подготовленная команда головорезов. Но захват оборачивается кровавой ловушкой, ведь банду нападающих ведет человек со своим представлением о целях «рейда». Его приоритет - не завод и не деньги, для него главное – справедливость и месть!

Выпущено: Россия / Радрагон
Продолжительность: 01:43:15
Озвучивание: Оригинальное | Лицензия
Формат: MKV
Качество: BDRip 720p
Видео: MPEG-4 AVC, 1280x536, 3821 Kbit/s, 24.000 fps
Аудио : 48 kHz, AC3, 5.1, 640 Kbps | Лицензия | RUS |

MI

General
Unique ID : 218889398848197630926641281801552090374 (0xA4AC909519481B53B27DC556DCE75506)
Complete name : F:VideoRusskiy.Reid.2019.BDRip.720p.ExKinoRay.mkv
Format : Matroska
Format version : Version 4
File size : 3.22 GiB
Duration : 1 h 43 min
Overall bit rate : 4 463 kb/s
Movie name : Russkiy Reid 2019 from ExKinoRay
Encoded date : UTC 2021-04-09 17:59:31
Writing application : mkvmerge v7.3.0 ('Nouages') 64bit built on Oct 22 2014 18:53:34
Writing library : libebml v1.3.0 + libmatroska v1.4.1
Video
ID : 1
Format : AVC
Format/Info : Advanced Video Codec
Format profile : High@L4.1
Format settings : CABAC / 12 Ref Frames
Format settings, CABAC : Yes
Format settings, Reference : 12 frames
Codec ID : V_MPEG4/ISO/AVC
Duration : 1 h 43 min
Bit rate : 3 821 kb/s
Width : 1 280 pixels
Height : 536 pixels
Display aspect ratio : 2.40:1
Frame rate mode : Constant
Frame rate : 24.000 FPS
Color space : YUV
Chroma subsampling : 4:2:0
Bit depth : 8 bits
Scan type : Progressive
Bits/(Pixel*Frame) : 0.232
Stream size : 2.76 GiB (86%)
Writing library : x264 core 146 r2538 121396c
Encoding settings : cabac=1 / ref=12 / deblock=1:-2:-2 / analyse=0x3:0x133 / me=umh / subme=10 / psy=1 / psy_rd=1.07:0.07 / mixed_ref=1 / me_range=32 / chroma_me=1 / trellis=2 / 8x8dct=1 / cqm=0 / deadzone=21,11 / fast_pskip=0 / chroma_qp_offset=-3 / threads=48 / lookahead_threads=4 / sliced_threads=0 / nr=0 / decimate=0 / interlaced=0 / bluray_compat=0 / constrained_intra=0 / bframes=9 / b_pyramid=2 / b_adapt=2 / b_bias=0 / direct=1 / weightb=1 / open_gop=0 / weightp=2 / keyint=240 / keyint_min=23 / scenecut=40 / intra_refresh=0 / rc_lookahead=50 / rc=crf / mbtree=0 / crf=16.8 / qcomp=0.60 / qpmin=0 / qpmax=51 / qpstep=4 / vbv_maxrate=50000 / vbv_bufsize=62500 / crf_max=0.0 / nal_hrd=none / filler=0 / ip_ratio=1.40 / pb_ratio=1.30 / aq=3:0.80
Language : English
Default : Yes
Forced : No
Audio
ID : 2
Format : AC-3
Format/Info : Audio Coding 3
Commercial name : Dolby Digital
Codec ID : A_AC3
Duration : 1 h 43 min
Bit rate mode : Constant
Bit rate : 640 kb/s
Channel(s) : 6 channels
Channel layout : L R C LFE Ls Rs
Sampling rate : 48.0 kHz
Frame rate : 31.250 FPS (1536 SPF)
Compression mode : Lossy
Stream size : 473 MiB (14%)
Language : Russian
Service kind : Complete Main
Default : Yes
Forced : No
Menu
00:00:00.000 : en:Глава 01
00:09:10.167 : en:Глава 02
00:18:28.083 : en:Глава 03
00:29:22.292 : en:Глава 04
00:37:34.792 : en:Глава 05
00:45:55.292 : en:Глава 06
01:01:05.917 : en:Глава 07
01:10:19.917 : en:Глава 08
01:23:56.250 : en:Глава 09
01:37:38.917 : en:Глава 10

[Цитировать]



Показать сообщения:    

Текущее время: 03-Авг 11:00

Часовой пояс: UTC + 6


Вы не можете начинать темы
Вы не можете отвечать на сообщения
Вы не можете редактировать свои сообщения
Вы не можете удалять свои сообщения
Вы не можете голосовать в опросах
Вы не можете прикреплять файлы к сообщениям
Вы не можете скачивать файлы

!ВНИМАНИЕ!
Сайт не предоставляет электронные версии произведений, а занимается лишь коллекционированием и каталогизацией ссылок, присылаемых и публикуемых на форуме нашими читателями. Если вы являетесь правообладателем какого-либо представленного материала и не желаете, чтобы ссылка на него находилась в нашем каталоге, свяжитесь с нами, и мы незамедлительно удалим ее. Файлы для обмена на трекере предоставлены пользователями сайта, и администрация не несет ответственности за их содержание. Просьба не заливать файлы, защищенные авторскими правами, а также файлы нелегального содержания!