***Уважаемые пользователи и гости !!! Сайт переехал на новый домен Torrents-club.info. Просьба изменить ваши закладки! ***
 
[ Сегодня идет свободное скачивание без начисления Download ]


Статистика раздачи
Нет
 
   
 
 
 
 
438 дней / 438 dagarИнформация о фильме
Название: 438 дней
Оригинальное название: 438 dagar
Год выхода: 2019
Жанр: Триллер, драма
Режиссер: Йеспер Гансландт
В ролях: Густаф Скарсгард, Матиас Варела, Файсал Ахмед, Йозефин Нельден, Стефен Дженнингс, Филип Санден, Йеспер Гансландт, Грэм Кларк, Натаниель Рамабулана, Фарук Валли-Омар

О фильме: Июнь 2011 года. Двое независимых шведских журналистов Йохан и Мартин решают сделать эксклюзивный репортаж о мятежной эфиопской провинции Огаден, где правительственные войска ведут войну с повстанцами Национального фронта освобождения Огадена. Чтобы накопать компромат на известного шведского политика Карла Бильдта, имевшего отношение к компании, занимающейся разведкой нефти в странах Африки, Йохан и Мартин проникают в Огаден с помощью повстанцев. Однако вскоре их ловят, и у журналистов остается одна надежда – что их вытащат те, под кого они копали.
Страна: Швеция
Студия: Film i Väst, Miso Film Sverige, Sveriges Television (SVT)
Продолжительность: 02:02:56
Перевод: Дублированный | iTunes
Качество: BDRip 1080p
Видео: MPEG-4 AVC, 1920x802, 6500 Кbit/s, 24.000 fps
Аудио: 48 kHz, AC3, 5.1, 384 Kbps | iTunes | RUS |
Субтитры: Отсутсвуют

Скриншоты:

x264 Log

x264 [info]: frame I:1146 Avg QP:17.13 size:167437
x264 [info]: frame P:35866 Avg QP:20.64 size: 66748
x264 [info]: frame B:140032 Avg QP:22.38 size: 24319
x264 [info]: consecutive B-frames: 1.7% 2.7% 7.4% 8.7% 5.8% 68.3% 2.2% 0.5% 1.2% 1.6%

MI

General
Unique ID : 228323351250337332811090925971393361363 (0xABC57A58CE9621D94C2DECC7B40E35D3)
Complete name : F:Video438.Dagar.2019.BDRip.1080p.seleZen.mkv
Format : Matroska
Format version : Version 4
File size : 5.91 GiB
Duration : 2 h 2 min
Overall bit rate : 6 882 kb/s
Movie name : 438 dagar 2019 from seleZen
Encoded date : UTC 2021-05-03 21:57:45
Writing application : mkvmerge v55.0.0 ('Waiting For Space') 64-bit
Writing library : libebml v1.4.2 + libmatroska v1.6.4
Video
ID : 1
Format : AVC
Format/Info : Advanced Video Codec
Format profile : High@L4.1
Format settings : CABAC / 5 Ref Frames
Format settings, CABAC : Yes
Format settings, Reference : 5 frames
Codec ID : V_MPEG4/ISO/AVC
Duration : 2 h 2 min
Bit rate : 6 500 kb/s
Width : 1 920 pixels
Height : 802 pixels
Display aspect ratio : 2.40:1
Frame rate mode : Constant
Frame rate : 24.000 FPS
Color space : YUV
Chroma subsampling : 4:2:0
Bit depth : 8 bits
Scan type : Progressive
Bits/(Pixel*Frame) : 0.176
Stream size : 5.58 GiB (94%)
Writing library : x264 core 146 -from seleZen
Encoding settings : cabac=1 / ref=5 / deblock=1:-2:-2 / analyse=0x3:0x133 / me=umh / subme=10 / psy=1 / psy_rd=1.04:0.05 / mixed_ref=1 / me_range=32 / chroma_me=1 / trellis=2 / 8x8dct=1 / cqm=0 / deadzone=21,11 / fast_pskip=0 / chroma_qp_offset=-3 / threads=36 / lookahead_threads=6 / sliced_threads=0 / nr=0 / decimate=0 / interlaced=0 / bluray_compat=0 / constrained_intra=0 / bframes=9 / b_pyramid=2 / b_adapt=2 / b_bias=0 / direct=3 / weightb=1 / open_gop=0 / weightp=2 / keyint=240 / keyint_min=23 / scenecut=40 / intra_refresh=0 / rc_lookahead=50 / rc=2pass / mbtree=0 / bitrate=6500 / ratetol=1.0 / qcomp=0.60 / qpmin=0 / qpmax=51 / qpstep=4 / cplxblur=20.0 / qblur=0.5 / vbv_maxrate=50000 / vbv_bufsize=62500 / nal_hrd=none / filler=0 / ip_ratio=1.40 / pb_ratio=1.30 / aq=3:0.80
Language : English
Default : Yes
Forced : No
Audio
ID : 2
Format : AC-3
Format/Info : Audio Coding 3
Commercial name : Dolby Digital
Codec ID : A_AC3
Duration : 2 h 2 min
Bit rate mode : Constant
Bit rate : 384 kb/s
Channel(s) : 6 channels
Channel layout : L R C LFE Ls Rs
Sampling rate : 48.0 kHz
Frame rate : 31.250 FPS (1536 SPF)
Compression mode : Lossy
Stream size : 337 MiB (6%)
Title : iTunes
Language : Russian
Service kind : Complete Main
Default : Yes
Forced : Yes
Menu
00:00:00.000 : en:Глава 01
00:03:54.458 : en:Глава 02
00:19:52.625 : en:Глава 03
00:33:03.292 : en:Глава 04
00:47:29.583 : en:Глава 05
01:02:06.000 : en:Глава 06
01:16:08.875 : en:Глава 07
01:32:36.500 : en:Глава 08
01:46:37.125 : en:Глава 09
01:58:39.208 : en:Глава 10

[Цитировать]



Показать сообщения:    

Текущее время: 06-Май 12:21

Часовой пояс: UTC + 6


Вы не можете начинать темы
Вы не можете отвечать на сообщения
Вы не можете редактировать свои сообщения
Вы не можете удалять свои сообщения
Вы не можете голосовать в опросах
Вы не можете прикреплять файлы к сообщениям
Вы не можете скачивать файлы

!ВНИМАНИЕ!
Сайт не предоставляет электронные версии произведений, а занимается лишь коллекционированием и каталогизацией ссылок, присылаемых и публикуемых на форуме нашими читателями. Если вы являетесь правообладателем какого-либо представленного материала и не желаете, чтобы ссылка на него находилась в нашем каталоге, свяжитесь с нами, и мы незамедлительно удалим ее. Файлы для обмена на трекере предоставлены пользователями сайта, и администрация не несет ответственности за их содержание. Просьба не заливать файлы, защищенные авторскими правами, а также файлы нелегального содержания!