***Уважаемые пользователи и гости !!! Сайт переехал на новый домен Torrents-club.info. Просьба изменить ваши закладки! ***
 
[ Сегодня идет свободное скачивание без начисления Download ]


Статистика раздачи
Скачал: [ 5 ]
 
   
 
 
 
 
Главная девочка / Top Girl- Информация о фильме
Название: Главная девочка
Оригинальное название: Top Girl
Год выхода: 1997
Жанр: Мелодрама, эротика
Режиссер: Джо Д’Амато / Joe D'Amato
В ролях: Карла Соларо, Роберт Мэдисон, Соня Топацио, Дэвид Д’Инжео, Линда Гуччиардо и др.
О фильме:
Патриция - молодая красивая девушка, живущая в маленьком городке. Однажды ей выпадает шанс всей её жизни, ведь она выбрана среди многих других девушек, чтобы сыграть главную роль в телесериале. Она оставляет все позади и переезжает в Лос-Анджелес, чтобы начать новую жизнь. Оказавшись там, она становится телезвездой и влюбляется в Майка, циничного и беспринципного менеджера телекомпании. Но чтобы найти себя, ей еще многому предстоит научиться.


Страна: Италия
Студия: Gold Film, Rewind Film
Продолжительность: 01:36:35
Перевод : Профессиональный двухголосый, любительский одноголосый
Файл
Формат: MKV
Качество: DVDRip-AVC
Видео: MPEG-4 AVC, 700x532, 1680 Кбит/с
Аудио #1: Русский, AC3, 2 ch, 192 Кбит/с | Профессиональный двухголосый |
Аудио #2: Русский, AC3, 2 ch, 192 Кбит/с | Любительский , Сергей Козлов |
Аудио #3: Итальянский, AC3, 2 ch, 192 Кбит/с | Оригинал |
Субтитры: Нет

MI

Общее
Уникальный идентификатор : 80347309551792594939136260364627272293 (0x3C725435858787B8B980BBB8A19EE265)
Полное имя : D:MOVIESTop.Girl.1997.DVDRip-AVC.ExKinoRay.mkv
Формат : Matroska
Версия формата : Version 4
Размер файла : 1,52 Гбайт
Продолжительность : 1 ч. 36 м.
Общий поток : 2 258 Кбит/сек
Дата кодирования : UTC 2021-05-06 05:48:16
Программа кодирования : mkvmerge v45.0.0 ('Heaven in Pennies') 64-bit
Библиотека кодирования : libebml v1.3.10 + libmatroska v1.5.2
Видео
Идентификатор : 1
Формат : AVC
Формат/Информация : Advanced Video Codec
Профиль формата : High@L4.1
Настройки формата : CABAC / 15 Ref Frames
Параметр CABAC формата : Да
Параметр RefFrames формата : 15 кадров
Идентификатор кодека : V_MPEG4/ISO/AVC
Продолжительность : 1 ч. 36 м.
Битрейт : 1 680 Кбит/сек
Ширина : 700 пикселей
Высота : 532 пикселя
Соотношение сторон : 4:3
Режим частоты кадров : Постоянный
Частота кадров : 23,976 (24000/1001) кадра/сек
Цветовое пространство : YUV
Субдискретизация насыщенности : 4:2:0
Битовая глубина : 8 бит
Тип развёртки : Прогрессивная
Бит/(Пиксели*Кадры) : 0.188
Размер потока : 1,13 Гбайт (74%)
Библиотека кодирования : x264 core 161 r3053 c347e7a
Настройки программы : cabac=1 / ref=15 / deblock=1:-2:-2 / analyse=0x3:0x133 / me=umh / subme=10 / psy=1 / psy_rd=1.07:0.15 / mixed_ref=1 / me_range=32 / chroma_me=1 / trellis=2 / 8x8dct=1 / cqm=0 / deadzone=21,11 / fast_pskip=0 / chroma_qp_offset=-3 / threads=6 / lookahead_threads=1 / sliced_threads=0 / nr=0 / decimate=0 / interlaced=0 / bluray_compat=0 / constrained_intra=0 / bframes=9 / b_pyramid=2 / b_adapt=2 / b_bias=0 / direct=3 / weightb=1 / open_gop=0 / weightp=2 / keyint=240 / keyint_min=23 / scenecut=40 / intra_refresh=0 / rc=2pass / mbtree=0 / bitrate=1680 / ratetol=1.0 / qcomp=0.60 / qpmin=0 / qpmax=69 / qpstep=4 / cplxblur=20.0 / qblur=0.5 / ip_ratio=1.40 / pb_ratio=1.30 / aq=1:1.00
Язык : English
Default : Да
Forced : Нет
Аудио #1
Идентификатор : 2
Формат : AC-3
Формат/Информация : Audio Coding 3
Коммерческое название : Dolby Digital
Идентификатор кодека : A_AC3
Продолжительность : 1 ч. 36 м.
Вид битрейта : Постоянный
Битрейт : 192 Кбит/сек
Каналы : 2 канала
Channel layout : L R
Частота : 48,0 КГц
Частота кадров : 31,250 кадров/сек (1536 SPF)
Метод сжатия : С потерями
Размер потока : 133 Мбайт (9%)
Язык : Russian
Service kind : Complete Main
Default : Да
Forced : Нет
Аудио #2
Идентификатор : 3
Формат : AC-3
Формат/Информация : Audio Coding 3
Коммерческое название : Dolby Digital
Идентификатор кодека : A_AC3
Продолжительность : 1 ч. 36 м.
Вид битрейта : Постоянный
Битрейт : 192 Кбит/сек
Каналы : 2 канала
Channel layout : L R
Частота : 48,0 КГц
Частота кадров : 31,250 кадров/сек (1536 SPF)
Метод сжатия : С потерями
Размер потока : 133 Мбайт (9%)
Язык : Russian
Service kind : Complete Main
Default : Нет
Forced : Нет
Аудио #3
Идентификатор : 4
Формат : AC-3
Формат/Информация : Audio Coding 3
Коммерческое название : Dolby Digital
Идентификатор кодека : A_AC3
Продолжительность : 1 ч. 36 м.
Вид битрейта : Постоянный
Битрейт : 192 Кбит/сек
Каналы : 2 канала
Channel layout : L R
Частота : 48,0 КГц
Частота кадров : 31,250 кадров/сек (1536 SPF)
Метод сжатия : С потерями
Размер потока : 133 Мбайт (9%)
Язык : Italian
Service kind : Complete Main
Default : Нет
Forced : Нет
Меню
00:00:00.000 : en:Chapter 01
00:13:29.367 : en:Chapter 02
00:26:07.501 : en:Chapter 03
00:40:50.702 : en:Chapter 04
00:58:35.237 : en:Chapter 05
01:17:47.772 : en:Chapter 06
01:36:28.840 : en:Chapter 07

Скриншоты

[Цитировать]



Показать сообщения:    

Текущее время: 19-Июн 06:29

Часовой пояс: UTC + 6


Вы не можете начинать темы
Вы не можете отвечать на сообщения
Вы не можете редактировать свои сообщения
Вы не можете удалять свои сообщения
Вы не можете голосовать в опросах
Вы не можете прикреплять файлы к сообщениям
Вы не можете скачивать файлы

!ВНИМАНИЕ!
Сайт не предоставляет электронные версии произведений, а занимается лишь коллекционированием и каталогизацией ссылок, присылаемых и публикуемых на форуме нашими читателями. Если вы являетесь правообладателем какого-либо представленного материала и не желаете, чтобы ссылка на него находилась в нашем каталоге, свяжитесь с нами, и мы незамедлительно удалим ее. Файлы для обмена на трекере предоставлены пользователями сайта, и администрация не несет ответственности за их содержание. Просьба не заливать файлы, защищенные авторскими правами, а также файлы нелегального содержания!