***Уважаемые пользователи и гости !!! Сайт переехал на новый домен Torrents-club.info. Просьба изменить ваши закладки! ***
 
[ Сегодня идет свободное скачивание без начисления Download ]


Статистика раздачи
Нет
 
   
 
 
 
 
Круэлла / Cruella (2021) [4K, HEVC, HDR10 / WEB-DL] (2160p) Год выпуска: 2021
Жанр: Комедия, криминал
Выпущено: США, Великобритания, Gunn Films, Marc Platt Productions, TSG Entertainment
Режиссер: Крэйг Гиллеспи
Продолжительность: 02:17:15
Перевод: Любительский двухголосый
Субтитры: Русские, английские
Возраст 12+

В ролях
: Эмма Стоун, Эмма Томпсон, Джоэль Фрай, Пол Уолтер Хаузер, Джон Маккри, Эмили Бичем, Марк Стронг, Кайван Новак, Кирби Хауэлл-Баптист, Джэми Деметриу

О фильме:
Лондон 70-х годов охвачен зарождающейся культурой панк-рока. Невероятно одаренная мошенница по имени Эстелла решает сделать себе имя в мире моды. Её лучшие друзья — парочка юных карманников, которые ценят страсть Эстеллы к приключениям и надеются вместе с ней отвоевать себе место под солнцем на улицах британской столицы. В один прекрасный день модное чутье Эстеллы привлекает внимание шикарной и пугающе высокомерной баронессы фон Хельман.
Круэлла
Техданные
Качество: WEB-DL (2160p)
Видео: MPEG-H HEVC, 16,4 Mбит/с, 3840x2160. 10 бит
Аудио: Русский (AC3, 6 ch, 448 Кбит/с), английский (E-AC3+Atmos, 6 ch, 768 Кбит/с)
Релиз предоставлен онлайн кинотеатром KinoPub
Любительский двухголосый Pazl Voice | Tnx. KinoPub
Субтитры: Русские (Full), английские (SDH)
Без рекламы!
работа со звуком: JNS82

MediaInfo:

Общее
Уникальный идентификатор                 : 35919639698338372498641497382771596423 (0x1B05DEF7CD6395CDC5F59F168B799C87)
Полное имя                               : C:\Users\Nick\Downloads\Cruella.(2021).2160p.DSNP.WEB-DL.x265.10bit.KinoPub.mkv
Формат                                   : Matroska
Версия формата                           : Version 4
Размер файла                             : 16,5 Гбайт
Продолжительность                        : 2 ч. 17 м.
Общий поток                              : 17,2 Мбит/сек
Название фильма                          : Cruella.(2021).2160p.DSNP.WEB-DL.x265.10bit.KinoPub
Дата кодирования                         : UTC 2021-05-31 12:19:02
Программа кодирования                    : mkvmerge v53.0.0 ('Fool's Gold') 64-bit
Библиотека кодирования                   : libebml v1.4.1 + libmatroska v1.6.2
Видео
Идентификатор                            : 1
Формат                                   : HEVC
Формат/Информация                        : High Efficiency Video Coding
Профиль формата                          : Main 10@L5@High
HDR format                               : SMPTE ST 2086, HDR10 compatible
Идентификатор кодека                     : V_MPEGH/ISO/HEVC
Продолжительность                        : 2 ч. 13 м.
Битрейт                                  : 16,4 Мбит/сек
Ширина                                   : 3 840 пикселей
Высота                                   : 2 160 пикселей
Соотношение сторон                       : 16:9
Режим частоты кадров                     : Постоянный
Частота кадров                           : 23,976 (24000/1001) кадра/сек
Цветовое пространство                    : YUV
Субдискретизация насыщенности            : 4:2:0
Битовая глубина                          : 10 бит
Бит/(Пиксели*Кадры)                      : 0.082
Размер потока                            : 15,3 Гбайт (93%)
Default                                  : Да
Forced                                   : Нет
Цветовой диапазон                        : Limited
Основные цвета                           : BT.2020
Характеристики трансфера                 : PQ
Коэффициенты матрицы                     : BT.2020 non-constant
Mastering display color primaries        : Display P3
Mastering display luminance              : min: 0.0000 cd/m2, max: 1000 cd/m2
Аудио #1
Идентификатор                            : 2
Формат                                   : AC-3
Формат/Информация                        : Audio Coding 3
Коммерческое название                    : Dolby Digital
Идентификатор кодека                     : A_AC3
Продолжительность                        : 2 ч. 17 м.
Вид битрейта                             : Постоянный
Битрейт                                  : 448 Кбит/сек
Каналы                                   : 6 каналов
Channel layout                           : L R C LFE Ls Rs
Частота                                  : 48,0 КГц
Частота кадров                           : 31,250 кадров/сек (1536 SPF)
Метод сжатия                             : С потерями
Размер потока                            : 440 Мбайт (3%)
Заголовок                                : [DVO] Pazl Voice | KinoPub
Язык                                     : Russian
Service kind                             : Complete Main
Default                                  : Да
Forced                                   : Нет
Аудио #2
Идентификатор                            : 3
Формат                                   : E-AC-3 JOC
Формат/Информация                        : Enhanced AC-3 with Joint Object Coding
Коммерческое название                    : Dolby Digital Plus with Dolby Atmos
Идентификатор кодека                     : A_EAC3
Продолжительность                        : 2 ч. 13 м.
Вид битрейта                             : Постоянный
Битрейт                                  : 768 Кбит/сек
Каналы                                   : 6 каналов
Channel layout                           : L R C LFE Ls Rs
Частота                                  : 48,0 КГц
Частота кадров                           : 31,250 кадров/сек (1536 SPF)
Метод сжатия                             : С потерями
Размер потока                            : 736 Мбайт (4%)
Заголовок                                : English
Язык                                     : English
Service kind                             : Complete Main
Default                                  : Нет
Forced                                   : Нет
Complexity index                         : 16
Number of dynamic objects                : 15
Bed channel count                        : 1 канал
Bed channel configuration                : LFE
Текст #1
Идентификатор                            : 4
Формат                                   : UTF-8
Идентификатор кодека                     : S_TEXT/UTF8
Идентификатор кодека/Информация          : UTF-8 Plain Text
Продолжительность                        : 2 ч. 6 м.
Битрейт                                  : 81 бит/сек
Count of elements                        : 1563
Размер потока                            : 75,5 Кбайт (0%)
Заголовок                                : Full
Язык                                     : Russian
Default                                  : Нет
Forced                                   : Нет
Текст #2
Идентификатор                            : 5
Формат                                   : UTF-8
Идентификатор кодека                     : S_TEXT/UTF8
Идентификатор кодека/Информация          : UTF-8 Plain Text
Продолжительность                        : 2 ч. 6 м.
Битрейт                                  : 45 бит/сек
Count of elements                        : 1583
Размер потока                            : 42,6 Кбайт (0%)
Заголовок                                : English
Язык                                     : English
Default                                  : Нет
Forced                                   : Нет
Текст #3
Идентификатор                            : 6
Формат                                   : UTF-8
Идентификатор кодека                     : S_TEXT/UTF8
Идентификатор кодека/Информация          : UTF-8 Plain Text
Продолжительность                        : 2 ч. 11 м.
Битрейт                                  : 51 бит/сек
Count of elements                        : 1902
Размер потока                            : 49,4 Кбайт (0%)
Заголовок                                : English [SDH]
Язык                                     : English
Default                                  : Нет
Forced                                   : Нет

Скриншоты

[Цитировать]

Топик был перенесен из форума Зарубежные фильмы Ultra-HD / 4K в форум Поглощенные
killer110289



Показать сообщения:    

Текущее время: 19-Июн 07:00

Часовой пояс: UTC + 6


Вы не можете начинать темы
Вы не можете отвечать на сообщения
Вы не можете редактировать свои сообщения
Вы не можете удалять свои сообщения
Вы не можете голосовать в опросах
Вы не можете прикреплять файлы к сообщениям
Вы не можете скачивать файлы

!ВНИМАНИЕ!
Сайт не предоставляет электронные версии произведений, а занимается лишь коллекционированием и каталогизацией ссылок, присылаемых и публикуемых на форуме нашими читателями. Если вы являетесь правообладателем какого-либо представленного материала и не желаете, чтобы ссылка на него находилась в нашем каталоге, свяжитесь с нами, и мы незамедлительно удалим ее. Файлы для обмена на трекере предоставлены пользователями сайта, и администрация не несет ответственности за их содержание. Просьба не заливать файлы, защищенные авторскими правами, а также файлы нелегального содержания!