***Уважаемые пользователи и гости !!! Сайт переехал на новый домен Torrents-club.info. Просьба изменить ваши закладки! ***
 
[ Сегодня идет свободное скачивание без начисления Download ]


Статистика раздачи
Скачал: [ 2 ]
 
   
 
 
 
 
Проклятие: Призраки дома Борли / The Banishing- Информация о фильме
Название: Проклятие: Призраки дома Борли
Оригинальное название: The Banishing
Год выхода: 2020
Жанр: Ужасы
Режиссер: Кристофер Смит
В ролях: Джон Хеффернан, Джессика Браун-Финдли, Шон Харрис, Аня Маккенна-Брюс, Адам Хагилл, Джон Линч, Джин Ст. Клэр, Джейсон Торпе, Эми Тригг, Найджел Трэвис
О фильме: 1930-е годы, Англия. Над миром нависает тень Второй мировой, а священник Линус с женой и дочерью переезжает в предоставленный церковью дом. От него скрывают, что предыдущий жилец сошёл с ума, убил жену, а сам повесился, и вскоре с новыми постояльцами начинают происходить странные вещи. Поначалу Линус закрывает на это глаза и даже не верит вышедшему на него местному оккультисту Гарри Прайсу, но вскоре им предстоит объединиться для борьбы с коварным злом.

Страна: Великобритания
Студия: WestEnd Films
Продолжительность: 01:36:58
Перевод: Профессиональный (полное дублирование) | iTunes
Файл
Формат: MKV
Качество: WEB-DL 1080p
Видео: MPEG-4 AVC, 1920х1040 (1.85:1), 9633 Kbps, 24.000 fps
Аудио 1: Russian: 48.0 KHz, AC3, 6 ch, 384 Kbps | DUB, iTunes
Аудио 2: English: 48.0 KHz, E-AC3, 2 ch, 224 Kbps | Original
Субтитры: Английские (SDH)

Скриншоты

MediaInfo

General
Unique ID : 227134345750394013615433596526019312814 (0xAAE07BD986EA1939BE1099A766957CAE)
Complete name : The.Banishing.2020.AMZN.WEB-DL.1080p.mkv
Format : Matroska
Format version : Version 4 / Version 2
File size : 6.94 GiB
Duration : 1 h 36 min
Overall bit rate : 10.2 Mb/s
Encoded date : UTC 2021-06-04 06:12:42
Writing application : mkvmerge v7.3.0 ('Nouages') 64bit built on Oct 22 2014 18:53:34
Writing library : libebml v1.3.0 + libmatroska v1.4.1
Video
ID : 1
Format : AVC
Format/Info : Advanced Video Codec
Format profile : High@L4
Format settings, CABAC : Yes
Format settings, RefFrames : 4 frames
Codec ID : V_MPEG4/ISO/AVC
Duration : 1 h 36 min
Bit rate : 9 633 kb/s
Width : 1 920 pixels
Height : 1 040 pixels
Display aspect ratio : 1.85:1
Frame rate mode : Constant
Frame rate : 24.000 FPS
Color space : YUV
Chroma subsampling : 4:2:0
Bit depth : 8 bits
Scan type : Progressive
Bits/(Pixel*Frame) : 0.201
Stream size : 6.52 GiB (94%)
Language : English
Default : Yes
Forced : No
Color range : Limited
Color primaries : BT.709
Transfer characteristics : BT.709
Matrix coefficients : BT.709
Audio #1
ID : 2
Format : AC-3
Format/Info : Audio Coding 3
Format settings, Endianness : Big
Codec ID : A_AC3
Duration : 1 h 36 min
Bit rate mode : Constant
Bit rate : 384 kb/s
Channel(s) : 6 channels
Channel positions : Front: L C R, Side: L R, LFE
Sampling rate : 48.0 kHz
Frame rate : 31.250 FPS (1536 SPF)
Bit depth : 16 bits
Compression mode : Lossy
Stream size : 266 MiB (4%)
Title : iTunes
Language : Russian
Service kind : Complete Main
Default : Yes
Forced : No
Audio #2
ID : 3
Format : E-AC-3
Format/Info : Enhanced Audio Coding 3
Format settings, Endianness : Big
Codec ID : A_EAC3
Duration : 1 h 36 min
Bit rate mode : Constant
Bit rate : 224 kb/s
Channel(s) : 2 channels
Channel positions : Front: L R
Sampling rate : 48.0 kHz
Frame rate : 187.500 FPS (256 SPF)
Compression mode : Lossy
Stream size : 155 MiB (2%)
Title : Original
Language : English
Service kind : Complete Main
Default : No
Forced : No
Text
ID : 4
Format : UTF-8
Codec ID : S_TEXT/UTF8
Codec ID/Info : UTF-8 Plain Text
Duration : 1 h 36 min
Bit rate : 38 b/s
Count of elements : 1086
Stream size : 27.3 KiB (0%)
Title : SDH
Language : English
Default : No
Forced : No

[Цитировать]



Показать сообщения:    

Текущее время: 24-Сен 18:48

Часовой пояс: UTC + 6


Вы не можете начинать темы
Вы не можете отвечать на сообщения
Вы не можете редактировать свои сообщения
Вы не можете удалять свои сообщения
Вы не можете голосовать в опросах
Вы не можете прикреплять файлы к сообщениям
Вы не можете скачивать файлы

!ВНИМАНИЕ!
Сайт не предоставляет электронные версии произведений, а занимается лишь коллекционированием и каталогизацией ссылок, присылаемых и публикуемых на форуме нашими читателями. Если вы являетесь правообладателем какого-либо представленного материала и не желаете, чтобы ссылка на него находилась в нашем каталоге, свяжитесь с нами, и мы незамедлительно удалим ее. Файлы для обмена на трекере предоставлены пользователями сайта, и администрация не несет ответственности за их содержание. Просьба не заливать файлы, защищенные авторскими правами, а также файлы нелегального содержания!