***Уважаемые пользователи и гости !!! Сайт переехал на новый домен Torrents-club.info. Просьба изменить ваши закладки! ***
 
[ Сегодня идет свободное скачивание без начисления Download ]


Статистика раздачи
Нет
 
   
 
 
 
 
Сумерки / Twilight (2008) [4K, HEVC, HDR, Dolby Vision TV / Blu-Ray Remux] (2160p) Год выпуска: 2008
Жанр: Триллер, фэнтези, мелодрама, драма, вампиры, оборотни
Выпущено: США, Goldcrest Pictures, Imprint Entertainment, Maverick Films, Summit Entertainment, Temple Hill Entertainment, Twilight Productions
Режиссер: Кэтрин Хардвик
Продолжительность: 02:01:49
Перевод: Дублированный
возраст 16+

В ролях:
Кристен Стюарт, Роберт Паттинсон, Билли Бёрк, Эшли Грин, Никки Рид, Джексон Рэтбоун, Келлан Латс, Питер Фачинелли, Кэм Жиганде, Тейлор Лотнер, Анна Кендрик, Майкл Уэлч, Джастин Чон, Кристиан Серратос, Гил Бирмингем, Мэдисон Райли, Кенни Нью, Элизабет Ризер, Эди Гатеги
О фильме: Экранизация книги Стефани Майер. Студентка Изабелла Свон переезжает из Феникса (от матери с отчимом) в дождливый маленький городок Форкс (к отцу), чтобы учиться здесь на факультете биологии. Ее соседом по парте становится бледный, долговязый, замкнутый в себе Эдвард Каллен, все члены семьи которого — конкретные родственные связи озвучены весьма туманно, — обладают схожими внешними признаками и манерами поведения. Еще до первого, объединившего героев, урока несложно проследить их взаимную симпатию друг к другу, однако молодому человеку что-то мешает признаться в своих чувствах к девушке, в то время как последнюю интересует что именно. Позже выясняется, что скрывающийся под маской пациента наркологической клиники юноша водит машину как Спиди Гонщик, крушит голыми руками несокрушимое как Хэнкок, и вообще является представителем древнего клана вампиров, красочно описанного в местных легендах. Но любимых, как известно, не выбирают...
Сумерки 2008 трейлер на русском
Техданные
Качество: Blu-Ray Remux (2160p)
Видео: HEVC, 63.8 Мбит/с, 3840х2160, 23.976 кадр/с
Аудио: Русский (E-AC3, 6 ch, 3024 Кбит/с)

Релиз

Этот релиз проверен и идеально работает на LG OLED B9 2019г.в.
Просьба писать в комментариях, кто протестирует и на каких устройствах!
Приятного просмотра!
Сумерки / Twilight / 2008:
Видео: HEVC, 3840x2160, 63.8 Mbps (Dolby Vision, Version 1.0, dvhe.08.06, BL+RPU, HDR10 compatible / SMPTE ST 2086, HDR10 compatible)
Аудио: E-AC3 5.1 • 3024 kb/s • [Русский] • Дубляж [Custom]
*Звуковая дорожка создана из Dolby TrueHD 7.1 официальным кодировщиком Dolby Media Producer Suite

MediaInfo:

Общее
Полное имя                               : F:\UHD FILMS\Twilight (2008).mp4
Формат                                   : MPEG-4
Профиль формата                          : Base Media / Version 2
Идентификатор кодека                     : mp42 (isom/mp42/dby1)
Размер файла                             : 56,9 Гбайт
Продолжительность                        : 2 ч. 1 м.
Общий поток                              : 66,8 Мбит/сек
Дата кодирования                         : UTC 2021-05-02 16:58:50
Дата пометки                             : UTC 2021-05-02 16:58:50
Видео
Идентификатор                            : 1
Формат                                   : HEVC
Формат/Информация                        : High Efficiency Video Coding
Профиль формата                          : Main 10@L5.1@High
HDR format                               : Dolby Vision, Version 1.0, dvhe.08.06, BL+RPU, HDR10 compatible / SMPTE ST 2086, HDR10 compatible
Идентификатор кодека                     : hev1
Идентификатор кодека/Информация          : High Efficiency Video Coding
Продолжительность                        : 2 ч. 1 м.
Битрейт                                  : 63,8 Мбит/сек
Ширина                                   : 3 840 пикселей
Высота                                   : 2 160 пикселей
Соотношение сторон                       : 16:9
Режим частоты кадров                     : Постоянный
Частота кадров                           : 23,976 (24000/1001) кадра/сек
Цветовое пространство                    : YUV
Субдискретизация насыщенности            : 4:2:0 (Type 2)
Битовая глубина                          : 10 бит
Бит/(Пиксели*Кадры)                      : 0.321
Размер потока                            : 54,3 Гбайт (95%)
Заголовок                                : Twilight by TheEqualizer
Default                                  : Да
Alternate group                          : 1
Дата кодирования                         : UTC 2021-04-29 18:55:03
Дата пометки                             : UTC 2021-05-02 17:02:16
Цветовой диапазон                        : Limited
Основные цвета                           : BT.2020
Характеристики трансфера                 : PQ
Коэффициенты матрицы                     : BT.2020 non-constant
Mastering display color primaries        : Display P3
Mastering display luminance              : min: 0.0001 cd/m2, max: 1000 cd/m2
Maximum Content Light Level              : 1000 cd/m2
Maximum Frame-Average Light Level        : 905 cd/m2
Codec configuration box                  : hvcC+dvvC
Аудио
Идентификатор                            : 2
Формат                                   : E-AC-3
Формат/Информация                        : Enhanced AC-3
Коммерческое название                    : Dolby Digital Plus
Идентификатор кодека                     : ec-3
Продолжительность                        : 2 ч. 1 м.
Вид битрейта                             : Постоянный
Битрейт                                  : 3 024 Кбит/сек
Максимальный битрейт                     : 3 193 Кбит/сек
Каналы                                   : 6 каналов
Channel layout                           : L R C LFE Ls Rs
Частота                                  : 48,0 КГц
Частота кадров                           : 187,500 кадров/сек (256 SPF)
Метод сжатия                             : С потерями
Размер потока                            : 2,57 Гбайт (5%)
Заголовок                                : E-AC3 • 5.1 • 3024 kb/s • Дубляж [Custom]
Язык                                     : Russian
Service kind                             : Complete Main
Default                                  : Да
Alternate group                          : 1
Дата пометки                             : UTC 2021-05-02 17:02:16

Скриншоты

[Цитировать]



Показать сообщения:    

Текущее время: 19-Июн 05:51

Часовой пояс: UTC + 6


Вы не можете начинать темы
Вы не можете отвечать на сообщения
Вы не можете редактировать свои сообщения
Вы не можете удалять свои сообщения
Вы не можете голосовать в опросах
Вы не можете прикреплять файлы к сообщениям
Вы не можете скачивать файлы

!ВНИМАНИЕ!
Сайт не предоставляет электронные версии произведений, а занимается лишь коллекционированием и каталогизацией ссылок, присылаемых и публикуемых на форуме нашими читателями. Если вы являетесь правообладателем какого-либо представленного материала и не желаете, чтобы ссылка на него находилась в нашем каталоге, свяжитесь с нами, и мы незамедлительно удалим ее. Файлы для обмена на трекере предоставлены пользователями сайта, и администрация не несет ответственности за их содержание. Просьба не заливать файлы, защищенные авторскими правами, а также файлы нелегального содержания!