***Уважаемые пользователи и гости !!! Сайт переехал на новый домен Torrents-club.info. Просьба изменить ваши закладки! ***
 
[ Сегодня идет свободное скачивание без начисления Download ]


Статистика раздачи
Нет
 
   
 
 
 
 
РЭД / Red (2010) [4K, HEVC, HDR / Blu-Ray Remux] (2160p) Год выпуска: 2010
Жанр: Боевик, триллер, комедия, криминал
Выпущено: США, Summit Entertainment
Режиссер: Роберт Швентке
Продолжительность: 01:51:19
Перевод: Дублированный, авторский
Субтитры: Русские, английские, украинские
Возраст 12+
В ролях: Брюс Уиллис, Джон Малкович, Морган Фримен, Хелен Миррен, Мэри-Луиз Паркер, Карл Урбан, Брайан Кокс (I), Ричард Дрейфусс, Ребекка Пиджон, Крис Оуенс, Жаклин Флеминг, Рэнди Келли, Джейсон Джулиано, Лоуренс Тернер, Эмили Курода, Джо Крест, Жюстин Уачсбергер, Тара Йелленд, Эрнест Боргнайн, Джефферсон Браун, Одри Василевски, Джеймс Римар, Дмитрий Чеповецкий, Грег Брайк

О фильме
: Фрэнк Мозес, экс-агент супергруппы ЦРУ, живет теперь мирной и тихой жизнью. Но прошлое настигает его: как-то утром загадочный киллер пытается лишить его жизни. Опытный Фрэнк, конечно, сумел увернуться от пули, но сразу понял, что дело «табак». Кто же поможет справиться с командой ликвидаторов? Конечно, бывшие напарники: х
РЭД (RED, 2010)
Техданные
Качество: Blu-Ray Remux (2160p)
Видео: HEVC, 75 Мбит/с, 3840x2160, 23.976 Кадр/с
Аудио: Русский (DTS-HD МА, 6 ch, 2255 Кбит/с), (DTS-HD МА, 6 ch, 4019 Кбит/с), (DTS-HD МА, 6 ch, 4022 Кбит/с), (DTS-HD МА, 6 ch, 4044 Кбит/с), украинский (AC3, 2 ch, 192 Кбит/с), английский (DTS-HD МА, 6 ch, Кбит/с), (AC3, 2 ch, 192 Кбит/с)

Релиз

Видео:
MPEG-H HEVC Video 75045 kbps 2160p / 23.976 fps / 16:9 / Main 10 Profile 5.1 High / 4:2:0 / 10 bits / HDR / BT.2020 /
* MPEG-H HEVC Video 7579 kbps 1080p / 23.976 fps / 16:9 / Main 10 Profile 5.1 High / 4:2:0 / 10 bits / Dolby Vision / BT.2020 /
HDR: Dolby Vision + HDR10
Aspect ratio: 2.40:1
Original aspect ratio: 2.39:1
Аудио 1: Russian: DTS-HD Master Audio 2255 kbps 5.1 / 48 kHz / 2255 kbps / 16-bit (DTS Core: 5.1 / 48 kHz / 1509 kbps / 16-bit) |Дублированный, Blu-ray RUS (FHD)|
Аудио 2: Russian: DTS-HD Master Audio 4019 kbps 5.1 / 48 kHz / 4019 kbps / 24-bit (DTS Core: 5.1 / 48 kHz / 1509 kbps / 24-bit) |Одноголосый закадровый, А.Гаврилов|
Аудио 3: Russian: DTS-HD Master Audio 4022 kbps 5.1 / 48 kHz / 4022 kbps / 24-bit (DTS Core: 5.1 / 48 kHz / 1509 kbps / 24-bit) |Одноголосый закадровый, Д.Есарев|
Аудио 4: Russian: DTS-HD Master Audio 4044 kbps 5.1 / 48 kHz / 4044 kbps / 24-bit (DTS Core: 5.1 / 48 kHz / 1509 kbps / 24-bit) |Одноголосый закадровый, А.Наследников|
Аудио 5: Ukranian: DTS-HD Master Audio 3935kbps 5.1 / 48 kHz / 4044 kbps / 24-bit (DTS Core: 5.1 / 48 kHz / 1509 kbps / 24-bit) |Українська - дубляж (центральный канал - Line звук)|
Аудио 6: Ukranian: Dolby Digital Audio 192 kbps 2.0 / 48 kHz / 192 kbps |Студия Tretyakoff production|
Аудио 7: English: TrueHD+Atmos 4933 kbps 7.1 / 48 kHz / 4044 kbps / 24-bit |Original BD 4K|
Аудио 8: English: DTS-HD Master Audio 4091 kbps 7.1 / 48 kHz / 4091 kbps / 24-bit (DTS Core: 5.1 / 48 kHz / 1509 kbps / 24-bit) |Original|
Аудио 9: English: DTS-HD Master Audio 3998 kbps 5.1 / 48 kHz / 3998 kbps / 24-bit (DTS Core: 5.1 / 48 kHz / 1509 kbps / 24-bit) |Original|
Аудио 10: English: Dolby Digital Audio 640 kbps 5.1 / 48 kHz / 640 kbps |AC3 CORE|
Аудио 11: English: Dolby Digital Audio 192 kbps 2.0 / 48 kHz / 192 kbps |Commentary with Retired CIA Field Officer Robert Baer|
Субтитры: (русские, украинские, английские) - полные, английские (SDH, Commentary with Consultant Bob Baer)
Сохранены оригинальные главы как на Blu-ray.

MediaInfo:

Видео #1
Идентификатор                            : 1
Формат                                   : HEVC
Формат/Информация                        : High Efficiency Video Coding
Профиль формата                          : Main 10@L5.1@High
Идентификатор кодека                     : V_MPEGH/ISO/HEVC
Продолжительность                        : 1 ч. 51 м.
Битрейт                                  : 75,0 Мбит/сек
Ширина                                   : 3840 пикселей
Высота                                   : 2160 пикселей
Соотношение сторон                       : 16:9
Режим частоты кадров                     : Постоянный
Частота кадров                           : 23,976 (24000/1001) кадра/сек
Цветовое пространство                    : YUV
Субдискретизация насыщенности            : 4:2:0 (Type 2)
Битовая глубина                          : 10 бит
Бит/(Пиксели*Кадры)                      : 0.377
Размер потока                            : 58,3 Гбайт (65%)
Заголовок                                : RED.2010.2160p.BluRay.REMUX.HEVC.HDR
Default                                  : Да
Forced                                   : Нет
Цветовой диапазон                        : Limited
Основные цвета                           : BT.2020
Характеристики трансфера                 : PQ
Коэффициенты матрицы                     : BT.2020 non-constant
MasteringDisplay_ColorPrimaries          : Display P3
MasteringDisplay_Luminance               : min: 0.0050 cd/m2, max: 1000 cd/m2
MaxCLL                                   : 1000 cd/m2
MaxFALL                                  : 985 cd/m2
Видео #2
Идентификатор                            : 2
Формат                                   : HEVC
Формат/Информация                        : High Efficiency Video Coding
Профиль формата                          : Main 10@L5.1@High
Идентификатор кодека                     : V_MPEGH/ISO/HEVC
Продолжительность                        : 1 ч. 51 м.
Битрейт                                  : 7579 Кбит/сек
Ширина                                   : 1920 пикселей
Высота                                   : 1080 пикселей
Соотношение сторон                       : 16:9
Режим частоты кадров                     : Постоянный
Частота кадров                           : 23,976 (24000/1001) кадра/сек
Цветовое пространство                    : YUV
Субдискретизация насыщенности            : 4:2:0 (Type 2)
Битовая глубина                          : 10 бит
Бит/(Пиксели*Кадры)                      : 0.152
Размер потока                            : 5,88 Гбайт (7%)
Заголовок                                : RED.2010.2160p.BluRay.REMUX.HEVC.HDR.Dolby Vision.Metadata
Default                                  : Нет
Forced                                   : Нет
Цветовой диапазон                        : Limited
Основные цвета                           : BT.2020
Характеристики трансфера                 : PQ
Коэффициенты матрицы                     : BT.2020 non-constant
MasteringDisplay_ColorPrimaries          : Display P3
MasteringDisplay_Luminance               : min: 0.0050 cd/m2, max: 1000 cd/m2
Аудио #1
Идентификатор                            : 3
Формат                                   : DTS
Формат/Информация                        : Digital Theater Systems
Профиль формата                          : MA / Core
Идентификатор кодека                     : A_DTS
Продолжительность                        : 1 ч. 51 м.
Вид битрейта                             : Переменный / Постоянный
Битрейт                                  : 2255 Кбит/сек / 1509 Кбит/сек
Каналы                                   : 6 каналов
Расположение каналов                     : Front: L C R, Side: L R, LFE
Частота                                  : 48,0 КГц
Частота кадров                           : 93,750 кадра/сек (512 SPF)
Битовая глубина                          : 16 бит
Метод сжатия                             : Без потерь / Lossy
Размер потока                            : 1,75 Гбайт (2%)
Заголовок                                : Дублированный, Blu-ray RUS (FHD)
Язык                                     : Russian
Default                                  : Да
Forced                                   : Нет
Аудио #2
Идентификатор                            : 4
Формат                                   : DTS
Формат/Информация                        : Digital Theater Systems
Профиль формата                          : MA / Core
Идентификатор кодека                     : A_DTS
Продолжительность                        : 1 ч. 51 м.
Вид битрейта                             : Переменный / Постоянный
Битрейт                                  : 4019 Кбит/сек / 1509 Кбит/сек
Каналы                                   : 6 каналов
Расположение каналов                     : Front: L C R, Side: L R, LFE
Частота                                  : 48,0 КГц
Частота кадров                           : 93,750 кадра/сек (512 SPF)
Битовая глубина                          : 24 бит
Метод сжатия                             : Без потерь / Lossy
Размер потока                            : 3,12 Гбайт (3%)
Заголовок                                : Одноголосый закадровый, А.Гаврилов
Язык                                     : Russian
Default                                  : Нет
Forced                                   : Нет
Аудио #3
Идентификатор                            : 5
Формат                                   : DTS
Формат/Информация                        : Digital Theater Systems
Профиль формата                          : MA / Core
Идентификатор кодека                     : A_DTS
Продолжительность                        : 1 ч. 51 м.
Вид битрейта                             : Переменный / Постоянный
Битрейт                                  : 4022 Кбит/сек / 1509 Кбит/сек
Каналы                                   : 6 каналов
Расположение каналов                     : Front: L C R, Side: L R, LFE
Частота                                  : 48,0 КГц
Частота кадров                           : 93,750 кадра/сек (512 SPF)
Битовая глубина                          : 24 бит
Метод сжатия                             : Без потерь / Lossy
Размер потока                            : 3,12 Гбайт (3%)
Заголовок                                : Одноголосый закадровый, Д.Есарев
Язык                                     : Russian
Default                                  : Нет
Forced                                   : Нет
Аудио #4
Идентификатор                            : 6
Формат                                   : DTS
Формат/Информация                        : Digital Theater Systems
Профиль формата                          : MA / Core
Идентификатор кодека                     : A_DTS
Продолжительность                        : 1 ч. 51 м.
Вид битрейта                             : Переменный / Постоянный
Битрейт                                  : 4044 Кбит/сек / 1509 Кбит/сек
Каналы                                   : 6 каналов
Расположение каналов                     : Front: L C R, Side: L R, LFE
Частота                                  : 48,0 КГц
Частота кадров                           : 93,750 кадра/сек (512 SPF)
Битовая глубина                          : 24 бит
Метод сжатия                             : Без потерь / Lossy
Задержка видео                           : 21 мс.
Размер потока                            : 3,14 Гбайт (4%)
Заголовок                                : Одноголосый закадровый, А.Наследников
Язык                                     : Russian
Default                                  : Нет
Forced                                   : Нет
Аудио #5
Идентификатор                            : 7
Формат                                   : DTS
Формат/Информация                        : Digital Theater Systems
Профиль формата                          : MA / Core
Идентификатор кодека                     : A_DTS
Продолжительность                        : 1 ч. 51 м.
Вид битрейта                             : Переменный / Постоянный
Битрейт                                  : 3935 Кбит/сек / 1509 Кбит/сек
Каналы                                   : 6 каналов
Расположение каналов                     : Front: L C R, Side: L R, LFE
Частота                                  : 48,0 КГц
Частота кадров                           : 93,750 кадра/сек (512 SPF)
Битовая глубина                          : 24 бит
Метод сжатия                             : Без потерь / Lossy
Размер потока                            : 3,06 Гбайт (3%)
Заголовок                                : DTS-HD Master Audio, 6 ch - Українська - дубляж [Line звук]
Язык                                     : Ukrainian
Default                                  : Нет
Forced                                   : Нет
Аудио #6
Идентификатор                            : 8
Формат                                   : AC-3
Формат/Информация                        : Audio Coding 3
Идентификатор кодека                     : A_AC3
Продолжительность                        : 1 ч. 51 м.
Вид битрейта                             : Постоянный
Битрейт                                  : 192 Кбит/сек
Каналы                                   : 2 канала
Расположение каналов                     : Front: L R
Частота                                  : 48,0 КГц
Частота кадров                           : 31,250 кадров/сек (1536 SPF)
Битовая глубина                          : 16 бит
Метод сжатия                             : С потерями
Размер потока                            : 153 Мбайт (0%)
Заголовок                                : AC3 2.0 @ 192 kbps - Студия Tretyakoff production
Язык                                     : Ukrainian
ServiceKind/String                       : Complete Main
Default                                  : Нет
Forced                                   : Нет
Аудио #7
Идентификатор                            : 9
Формат                                   : TrueHD
Профиль формата                          : TrueHD+Atmos / TrueHD
Идентификатор кодека                     : A_TRUEHD
Продолжительность                        : 1 ч. 51 м.
Вид битрейта                             : Переменный
Битрейт                                  : 4933 Кбит/сек
Максимальный битрейт                     : 8268 Кбит/сек
Каналы                                   : Object Based / 8 каналов
Расположение каналов                     : Object Based / Front: L C R, Side: L R, Back: L R, LFE
Частота                                  :  / 48,0 КГц
Частота кадров                           : 1200,000 кадров/сек (40 SPF)
Метод сжатия                             : Без потерь
Задержка видео                           : 1 мс.
Размер потока                            : 3,83 Гбайт (4%)
Заголовок                                : TrueHD Atmos 8 ch
Язык                                     : English
Default                                  : Нет
Forced                                   : Нет
Аудио #8
Идентификатор                            : 10
Формат                                   : DTS
Формат/Информация                        : Digital Theater Systems
Профиль формата                          : MA / Core
Идентификатор кодека                     : A_DTS
Продолжительность                        : 1 ч. 51 м.
Вид битрейта                             : Переменный / Постоянный
Битрейт                                  : 4091 Кбит/сек / 1509 Кбит/сек
Каналы                                   : 8 каналов / 6 каналов
Расположение каналов                     : Front: L C R, Side: L R, Back: L R, LFE / Front: L C R, Side: L R, LFE
Частота                                  : 48,0 КГц
Частота кадров                           : 93,750 кадра/сек (512 SPF)
Битовая глубина                          : 24 бит
Метод сжатия                             : Без потерь / Lossy
Размер потока                            : 3,18 Гбайт (4%)
Заголовок                                : DTS-HD Master Audio, 8 ch
Язык                                     : English
Default                                  : Нет
Forced                                   : Нет
Аудио #9
Идентификатор                            : 11
Формат                                   : DTS
Формат/Информация                        : Digital Theater Systems
Профиль формата                          : MA / Core
Идентификатор кодека                     : A_DTS
Продолжительность                        : 1 ч. 51 м.
Вид битрейта                             : Переменный / Постоянный
Битрейт                                  : 3998 Кбит/сек / 1509 Кбит/сек
Каналы                                   : 6 каналов
Расположение каналов                     : Front: L C R, Side: L R, LFE
Частота                                  : 48,0 КГц
Частота кадров                           : 93,750 кадра/сек (512 SPF)
Битовая глубина                          : 24 бит
Метод сжатия                             : Без потерь / Lossy
Размер потока                            : 3,10 Гбайт (3%)
Заголовок                                : DTS-HD Master Audio, 6 ch
Язык                                     : English
Default                                  : Нет
Forced                                   : Нет
Аудио #10
Идентификатор                            : 12
Формат                                   : AC-3
Формат/Информация                        : Audio Coding 3
Идентификатор кодека                     : A_AC3
Продолжительность                        : 1 ч. 51 м.
Вид битрейта                             : Постоянный
Битрейт                                  : 640 Кбит/сек
Каналы                                   : 6 каналов
Расположение каналов                     : Front: L C R, Side: L R, LFE
Частота                                  : 48,0 КГц
Частота кадров                           : 31,250 кадров/сек (1536 SPF)
Битовая глубина                          : 16 бит
Метод сжатия                             : С потерями
Задержка видео                           : 1 мс.
Размер потока                            : 509 Мбайт (1%)
Заголовок                                : English AC3 CORE
Язык                                     : English
ServiceKind/String                       : Complete Main
Default                                  : Нет
Forced                                   : Нет
Аудио #11
Идентификатор                            : 13
Формат                                   : AC-3
Формат/Информация                        : Audio Coding 3
Идентификатор кодека                     : A_AC3
Продолжительность                        : 1 ч. 51 м.
Вид битрейта                             : Постоянный
Битрейт                                  : 192 Кбит/сек
Каналы                                   : 2 канала
Расположение каналов                     : Front: L R
Частота                                  : 48,0 КГц
Частота кадров                           : 31,250 кадров/сек (1536 SPF)
Битовая глубина                          : 16 бит
Метод сжатия                             : С потерями
Размер потока                            : 153 Мбайт (0%)
Заголовок                                : |Commentary with Retired CIA Field Officer Robert Baer|
Язык                                     : English
ServiceKind/String                       : Complete Main
Default                                  : Нет
Forced                                   : Нет
Текст #1
Идентификатор                            : 14
Формат                                   : UTF-8
Идентификатор кодека                     : S_TEXT/UTF8
Идентификатор кодека/Информация          : UTF-8 Plain Text
Продолжительность                        : 1 ч. 44 м.
Битрейт                                  : 79 бит/сек
ElementCount                             : 1182
Размер потока                            : 60,6 Кбайт (0%)
Заголовок                                : Full - Paradise (License)
Язык                                     : Russian
Default                                  : Нет
Forced                                   : Нет
Текст #2
Идентификатор                            : 15
Формат                                   : UTF-8
Идентификатор кодека                     : S_TEXT/UTF8
Идентификатор кодека/Информация          : UTF-8 Plain Text
Продолжительность                        : 1 ч. 43 м.
Битрейт                                  : 78 бит/сек
ElementCount                             : 978
Размер потока                            : 59,5 Кбайт (0%)
Заголовок                                : mr_greenwood
Язык                                     : Russian
Default                                  : Нет
Forced                                   : Нет
Текст #3
Идентификатор                            : 16
Формат                                   : UTF-8
Идентификатор кодека                     : S_TEXT/UTF8
Идентификатор кодека/Информация          : UTF-8 Plain Text
Продолжительность                        : 1 ч. 43 м.
Битрейт                                  : 78 бит/сек
ElementCount                             : 979
Размер потока                            : 59,2 Кбайт (0%)
Заголовок                                : Українські повні
Язык                                     : Ukrainian
Default                                  : Нет
Forced                                   : Нет
Текст #4
Идентификатор                            : 17
Формат                                   : UTF-8
Идентификатор кодека                     : S_TEXT/UTF8
Идентификатор кодека/Информация          : UTF-8 Plain Text
Продолжительность                        : 1 ч. 42 м.
Битрейт                                  : 45 бит/сек
ElementCount                             : 1238
Размер потока                            : 34,1 Кбайт (0%)
Заголовок                                : Full
Язык                                     : English
Default                                  : Нет
Forced                                   : Нет
Текст #5
Идентификатор                            : 18
Формат                                   : UTF-8
Идентификатор кодека                     : S_TEXT/UTF8
Идентификатор кодека/Информация          : UTF-8 Plain Text
Продолжительность                        : 1 ч. 43 м.
Битрейт                                  : 47 бит/сек
ElementCount                             : 1337
Размер потока                            : 36,2 Кбайт (0%)
Заголовок                                : SDH
Язык                                     : English
Default                                  : Нет
Forced                                   : Нет
Текст #6
Идентификатор                            : 19
Формат                                   : UTF-8
Идентификатор кодека                     : S_TEXT/UTF8
Идентификатор кодека/Информация          : UTF-8 Plain Text
Продолжительность                        : 1 ч. 46 м.
Битрейт                                  : 92 бит/сек
ElementCount                             : 1536
Размер потока                            : 72,1 Кбайт (0%)
Заголовок                                : Commentary with Consultant Bob Baer
Язык                                     : English
Default                                  : Нет
Forced                                   : Нет
Меню
00:00:00.000                             : en:1. The Check Is in the Mail
00:07:11.264                             : en:2. They Know I Like You
00:14:03.426                             : en:3. Total Black Out
00:20:53.461                             : en:4. You Really Are CIA
00:24:06.570                             : en:5. Not My Best First Date
00:29:10.457                             : en:6. Tagged Him RED
00:35:56.571                             : en:7. She Called Me An Old Man
00:43:26.687                             : en:8. Hot Here for the Vodka
00:49:12.533                             : en:9. Breaking Into the CIA
00:55:56.937                             : en:10. Getting the Band Back Together
01:03:12.122                             : en:11. A Little Girl Time
01:09:42.011                             : en:12. How's Retirement?
01:15:24.270                             : en:13. You're At My House
01:20:52.181                             : en:14. Vice President Stanton
01:27:14.104                             : en:15. Secondary Exit
01:33:04.788                             : en:16. I Remember the Secret Service Being Tougher
01:38:31.906                             : en:17. Wanna Get Pancakes?
01:43:16.649                             : en:18. Greetings From Moldova

Скриншоты

[Цитировать]



Показать сообщения:    

Текущее время: 19-Июн 05:51

Часовой пояс: UTC + 6


Вы не можете начинать темы
Вы не можете отвечать на сообщения
Вы не можете редактировать свои сообщения
Вы не можете удалять свои сообщения
Вы не можете голосовать в опросах
Вы не можете прикреплять файлы к сообщениям
Вы не можете скачивать файлы

!ВНИМАНИЕ!
Сайт не предоставляет электронные версии произведений, а занимается лишь коллекционированием и каталогизацией ссылок, присылаемых и публикуемых на форуме нашими читателями. Если вы являетесь правообладателем какого-либо представленного материала и не желаете, чтобы ссылка на него находилась в нашем каталоге, свяжитесь с нами, и мы незамедлительно удалим ее. Файлы для обмена на трекере предоставлены пользователями сайта, и администрация не несет ответственности за их содержание. Просьба не заливать файлы, защищенные авторскими правами, а также файлы нелегального содержания!