***Уважаемые пользователи и гости !!! Сайт переехал на новый домен Torrents-club.info. Просьба изменить ваши закладки! ***
 
[ Сегодня идет свободное скачивание без начисления Download ]


Статистика раздачи
Нет
 
   
 
 
 
 
РЭД / RED (2010) [4K, HEVC, HDR / BDRip] (2160p) Год выпуска: 2010
Жанр: Боевик, триллер, комедия, криминал
Выпущено: США, Summit Entertainment
Режиссер: Роберт Швентке
Продолжительность: 01:51:19
Перевод: Дублированный
Субтитры: Русские, английские
Возраст 12+
В ролях: Брюс Уиллис, Джон Малкович, Морган Фримен, Хелен Миррен, Мэри-Луиз Паркер, Карл Урбан, Брайан Кокс (I), Ричард Дрейфусс, Ребекка Пиджон, Крис Оуенс, Жаклин Флеминг, Рэнди Келли, Джейсон Джулиано, Лоуренс Тернер, Эмили Курода, Джо Крест, Жюстин Уачсбергер, Тара Йелленд, Эрнест Боргнайн, Джефферсон Браун, Одри Василевски, Джеймс Римар, Дмитрий Чеповецкий, Грег Брайк

О фильме
: Фрэнк Мозес, экс-агент супергруппы ЦРУ, живет теперь мирной и тихой жизнью. Но прошлое настигает его: как-то утром загадочный киллер пытается лишить его жизни. Опытный Фрэнк, конечно, сумел увернуться от пули, но сразу понял, что дело «табак». Кто же поможет справиться с командой ликвидаторов? Конечно, бывшие напарники: х
РЭД (RED, 2010)
Техданные
Качество: BDRip (2160p)
Видео: HEVC, 16.8 Мбит/с, 3840x2160
Аудио: Русский (DTS, 6 ch, 1510 Кбит/c), английский (DTS-HD МА, 6 ch, 3998 Кбит/с), (AC3, 2 ch, 192 Кбит/с)

Релиз

Релиз от 002p013
Исходник: https://torrents-club.info/viewtopic.php?t=206512
Аудио:
Английский (DTS-HD МА, 6 ch, 3998 Кбит/с)
Английский (AC3, 2 ch, 192 Кбит/с) - Комментарий с отставным офицером ЦРУ Робертом Баером
Русский (DTS, 6 ch, 1510 Кбит/c) - отдельным файлом
Субтитры:
Русские (полные - Парадиз, лицензия)
Русские (полные - mr_greenwood)
Английские (полные - SDH)
Английские (Комментарий с консультантом Бобом Баером)
Меню: 18 Глав.

MediaInfo:

General
Complete name                            : РЭД (RED) 2010.mkv
Format                                   : Matroska
Format version                           : Version 4
File size                                : 16.3 GiB
Duration                                 : 1 h 51 min
Overall bit rate mode                    : Variable
Overall bit rate                         : 21.0 Mb/s
Movie name                               : encoded by 002p013
Encoded date                             : UTC 2020-02-04 17:54:11
Writing application                      : mkvmerge v43.0.0 ('The Quartermaster') 64-bit
Writing library                          : libebml v1.3.10 + libmatroska v1.5.2
Cover                                    : Yes
Attachments                              : cover.jpg
Video
ID                                       : 1
Format                                   : HEVC
Format/Info                              : High Efficiency Video Coding
Format profile                           : Main 10@L5.1@Main
HDR format                               : SMPTE ST 2086, HDR10 compatible
Codec ID                                 : V_MPEGH/ISO/HEVC
Duration                                 : 1 h 51 min
Bit rate                                 : 16.8 Mb/s
Width                                    : 3 840 pixels
Height                                   : 2 160 pixels
Display aspect ratio                     : 16:9
Frame rate mode                          : Constant
Frame rate                               : 23.976 (23976/1000) FPS
Color space                              : YUV
Chroma subsampling                       : 4:2:0
Bit depth                                : 10 bits
Bits/(Pixel*Frame)                       : 0.085
Stream size                              : 13.1 GiB (80%)
Default                                  : Yes
Forced                                   : No
Color range                              : Limited
Color primaries                          : BT.2020
Transfer characteristics                 : PQ
Matrix coefficients                      : BT.2020 non-constant
Mastering display color primaries        : Display P3
Mastering display luminance              : min: 0.0050 cd/m2, max: 1000 cd/m2
Maximum Content Light Level              : 1000 cd/m2
Maximum Frame-Average Light Level        : 985 cd/m2
Audio #1
ID                                       : 2
Format                                   : DTS XLL
Format/Info                              : Digital Theater Systems
Commercial name                          : DTS-HD Master Audio
Codec ID                                 : A_DTS
Duration                                 : 1 h 51 min
Bit rate mode                            : Variable
Bit rate                                 : 3 998 kb/s
Channel(s)                               : 6 channels
Channel layout                           : C L R Ls Rs LFE
Sampling rate                            : 48.0 kHz
Frame rate                               : 93.750 FPS (512 SPF)
Bit depth                                : 24 bits
Compression mode                         : Lossless
Stream size                              : 3.10 GiB (19%)
Title                                    : DTS-HD Master Audio, 6 ch
Language                                 : English
Default                                  : No
Forced                                   : No
Audio #2
ID                                       : 3
Format                                   : AC-3
Format/Info                              : Audio Coding 3
Commercial name                          : Dolby Digital
Codec ID                                 : A_AC3
Duration                                 : 1 h 51 min
Bit rate mode                            : Constant
Bit rate                                 : 192 kb/s
Channel(s)                               : 2 channels
Channel layout                           : L R
Sampling rate                            : 48.0 kHz
Frame rate                               : 31.250 FPS (1536 SPF)
Compression mode                         : Lossy
Stream size                              : 153 MiB (1%)
Title                                    : |Commentary with Retired CIA Field Officer Robert Baer|
Language                                 : English
Service kind                             : Complete Main
Default                                  : No
Forced                                   : No
Text #1
ID                                       : 4
Format                                   : UTF-8
Codec ID                                 : S_TEXT/UTF8
Codec ID/Info                            : UTF-8 Plain Text
Duration                                 : 1 h 44 min
Bit rate                                 : 79 b/s
Count of elements                        : 1182
Stream size                              : 60.6 KiB (0%)
Title                                    : Full - Paradise (License)
Language                                 : Russian
Default                                  : No
Forced                                   : No
Text #2
ID                                       : 5
Format                                   : UTF-8
Codec ID                                 : S_TEXT/UTF8
Codec ID/Info                            : UTF-8 Plain Text
Duration                                 : 1 h 43 min
Bit rate                                 : 78 b/s
Count of elements                        : 978
Stream size                              : 59.5 KiB (0%)
Title                                    : mr_greenwood
Language                                 : Russian
Default                                  : No
Forced                                   : No
Text #3
ID                                       : 6
Format                                   : UTF-8
Codec ID                                 : S_TEXT/UTF8
Codec ID/Info                            : UTF-8 Plain Text
Duration                                 : 1 h 42 min
Bit rate                                 : 45 b/s
Count of elements                        : 1238
Stream size                              : 34.1 KiB (0%)
Title                                    : Full
Language                                 : English
Default                                  : No
Forced                                   : No
Text #4
ID                                       : 7
Format                                   : UTF-8
Codec ID                                 : S_TEXT/UTF8
Codec ID/Info                            : UTF-8 Plain Text
Duration                                 : 1 h 43 min
Bit rate                                 : 47 b/s
Count of elements                        : 1337
Stream size                              : 36.2 KiB (0%)
Title                                    : SDH
Language                                 : English
Default                                  : No
Forced                                   : No
Text #5
ID                                       : 8
Format                                   : UTF-8
Codec ID                                 : S_TEXT/UTF8
Codec ID/Info                            : UTF-8 Plain Text
Duration                                 : 1 h 46 min
Bit rate                                 : 92 b/s
Count of elements                        : 1536
Stream size                              : 72.1 KiB (0%)
Title                                    : Commentary with Consultant Bob Baer
Language                                 : English
Default                                  : No
Forced                                   : No
Menu
00:00:00.000                             : en:1. The Check Is in the Mail
00:07:11.264                             : en:2. They Know I Like You
00:14:03.426                             : en:3. Total Black Out
00:20:53.461                             : en:4. You Really Are CIA
00:24:06.570                             : en:5. Not My Best First Date
00:29:10.457                             : en:6. Tagged Him RED
00:35:56.571                             : en:7. She Called Me An Old Man
00:43:26.687                             : en:8. Hot Here for the Vodka
00:49:12.533                             : en:9. Breaking Into the CIA
00:55:56.937                             : en:10. Getting the Band Back Together
01:03:12.122                             : en:11. A Little Girl Time
01:09:42.011                             : en:12. How's Retirement?
01:15:24.270                             : en:13. You're At My House
01:20:52.181                             : en:14. Vice President Stanton
01:27:14.104                             : en:15. Secondary Exit
01:33:04.788                             : en:16. I Remember the Secret Service Being Tougher
01:38:31.906                             : en:17. Wanna Get Pancakes?
01:43:16.649                             : en:18. Greetings From Moldova

Скриншоты

[Цитировать]



Показать сообщения:    

Текущее время: 19-Июн 05:48

Часовой пояс: UTC + 6


Вы не можете начинать темы
Вы не можете отвечать на сообщения
Вы не можете редактировать свои сообщения
Вы не можете удалять свои сообщения
Вы не можете голосовать в опросах
Вы не можете прикреплять файлы к сообщениям
Вы не можете скачивать файлы

!ВНИМАНИЕ!
Сайт не предоставляет электронные версии произведений, а занимается лишь коллекционированием и каталогизацией ссылок, присылаемых и публикуемых на форуме нашими читателями. Если вы являетесь правообладателем какого-либо представленного материала и не желаете, чтобы ссылка на него находилась в нашем каталоге, свяжитесь с нами, и мы незамедлительно удалим ее. Файлы для обмена на трекере предоставлены пользователями сайта, и администрация не несет ответственности за их содержание. Просьба не заливать файлы, защищенные авторскими правами, а также файлы нелегального содержания!