***Уважаемые пользователи и гости !!! Сайт переехал на новый домен Torrents-club.info. Просьба изменить ваши закладки! ***
 
[ Сегодня идет свободное скачивание без начисления Download ]


Статистика раздачи
Нет
 
   
 
 
 
 
Охотник на монстров / Monster Hunter (2020) [4K, HEVC, SDR / WEB-DL] (2160p) Год выпуска: 2020
Жанр: Фэнтези, боевик, приключения
Выпущено: США, Китай, Германия, Япония, Constantin Film, Impact Pictures, Capcom Company
Режиссер: Пол У. С. Андерсон
Продолжительность: 01:44:05
Перевод: Дублированный, профессиональный многоголосый, авторский
Субтитры: Русские, английские, украинские
Возраст 16+

В ролях:
Милла Йовович, Тони Джа, Ти Ай, Мэган Гуд, Диего Бонета, Джош Хелман, Джин О-Юн, Рон Перлман, Янник Шуманн, Хирона Ямадзаки

О фильме:
Параллельно нашему миру существует иной: мир, где правят крайне опасные и наделенные невероятной силой монстры, яростно оберегающие свои владения от чужаков. Именно сюда через пространственный портал попадают лейтенант Артемис и ее отряд элитных бойцов. И теперь им предстоит проверить себя на прочность перед лицом невиданной ранее угрозы. В попытке выжить и найти дорогу домой, Артемис объединяет силы с таинственным Охотником, который научился выживать в этих враждебных землях. Вместе героям предстоит вступить в беспощадную схватку с монстрами, не знающими страха и жалости.
Охотник на монстров
Техданные
Качество: WEB-DL (2160p)
Видео: HEVC, 9478 Кбит/с, 3840x1600, 10 бит
Аудио: Русский (AC3, 2 ch, 256 Кбит/с) (AC3, 6 ch, 448 Кбит/с), (AC3, 6 ch, 640 Кбит/с), украинский (AC3, 6 ch, 384 Кбит/с), английский (E-AC3, 6 ch, 640 Кбит/с)
Релиз от : KomputerniySpecl
Аудио 1: AC3, 48.0 kHz, 2 ch, 256 kb/s | RUS [DUB, Line]
Аудио 2: AC3, 48.0 kHz, 6 ch, 448 kb/s | RUS [MVO, HDRezka studio]
Аудио 3: AC3, 48.0 kHz, 6 ch, 640 kb/s | RUS [AVO, Дольский]
Аудио 4: AC3, 48.0 kHz, 6 ch, 640 kb/s | RUS [AVO, BadBajo]
Аудио 5: AC3, 48.0 kHz, 6 ch, 384 kb/s | UKR [MVO, HDRezka studio]
Аудио 6: E-AC3, 48.0 kHz, 6 ch, 640 kb/s | ENG [Оригинал]
Субтитры: Русские (2 x Forced, full), украинские (Forced), английские (Forced, full, SDH)

MediaInfo:

General
Unique ID : 176842743154784994293803353776343369754 (0x850AAC67264CCB1A807DF50E329E481A)
Complete name : Monster.Hunter.(2020).SDR.WEB-DL.2160p.mkv
Format : Matroska
Format version : Version 4
File size : 9.00 GiB
Duration : 1 h 43 min
Overall bit rate : 12.5 Mb/s
Encoded date : UTC 2021-02-20 11:27:16
Writing application : mkvmerge v8.3.0 ('Over the Horizon') 64bit
Writing library : libebml v1.3.1 + libmatroska v1.4.2
Video
ID : 1
Format : HEVC
Format/Info : High Efficiency Video Coding
Format profile : Main@L5@Main
Codec ID : V_MPEGH/ISO/HEVC
Duration : 1 h 43 min
Bit rate : 9 478 kb/s
Width : 3 840 pixels
Height : 1 600 pixels
Display aspect ratio : 2.40:1
Frame rate mode : Constant
Frame rate : 23.976 (24000/1001) FPS
Standard : NTSC
Color space : YUV
Chroma subsampling : 4:2:0
Bit depth : 8 bits
Bits/(Pixel*Frame) : 0.064
Stream size : 6.83 GiB (76%)
Writing library : x265 2.9_elemental+1-9e0607aa5b6f:[Linux][GCC 4.8.5][64 bit] 8bit+10bit+12bit
Encoding settings : cpuid=1111039 / frame-threads=2 / wpp / no-pmode / no-pme / psnr / ssim / log-level=2 / csv / csv-log-level=2 / input-csp=1 / input-res=3840x1600 / interlace=0 / total-frames=0 / level-idc=50 / high-tier=1 / uhd-bd=0 / ref=5 / no-allow-non-conformance / no-repeat-headers / annexb / no-aud / no-hrd / info / hash=0 / no-temporal-layers / no-open-gop / min-keyint=61 / keyint=120 / gop-lookahead=0 / bframes=8 / b-adapt=2 / b-pyramid / bframe-bias=0 / rc-lookahead=120 / lookahead-slices=4 / scenecut=0 / radl=0 / no-intra-refresh / ctu=64 / min-cu-size=8 / rect / amp / max-tu-size=32 / tu-inter-depth=4 / tu-intra-depth=4 / limit-tu=4 / rdoq-level=2 / dynamic-rd=0.00 / no-ssim-rd / signhide / tskip / nr-intra=100 / nr-inter=600 / no-constrained-intra / strong-intra-smoothing / max-merge=3 / limit-refs=3 / limit-modes / me=3 / subme=3 / merange=57 / temporal-mvp / weightp / weightb / no-analyze-src-pics / deblock=0:0 / no-sao / no-sao-non-deblock / rd=4 / no-early-skip / no-rskip / no-fast-intra / tskip-fast / no-cu-lossless / b-intra / no-splitrd-skip / rdpenalty=0 / psy-rd=4.00 / psy-rdoq=10.00 / no-rd-refine / no-lossless / cbqpoffs=0 / crqpoffs=0 / rc=crf / crf=25.0 / qcomp=0.60 / qpstep=1 / stats-write=0 / stats-read=0 / vbv-maxrate=15000 / vbv-bufsize=20000 / vbv-init=0.9 / crf-max=0.0 / crf-min=0.0 / ipratio=1.10 / pbratio=1.00 / aq-mode=0 / aq-strength=1.50 / no-cutree / zone-count=0 / no-strict-cbr / qg-size=32 / rc-grain / qpmax=69 / qpmin=0 / const-vbv / sar=1 / overscan=0 / videoformat=2 / range=0 / colorprim=1 / transfer=1 / colormatrix=1 / chromaloc=0 / display-window=0 / max-cll=0,0 / min-luma=0 / max-luma=255 / log2-max-poc-lsb=8 / vui-timing-info / vui-hrd-info / slices=1 / opt-qp-pps / no-opt-ref-list-length-pps / no-multi-pass-opt-rps / scenecut-bias=0.05 / no-opt-cu-delta-qp / no-aq-motion / no-hdr / no-hdr-opt / no-dhdr10-opt / no-idr-recovery-sei / analysis-reuse-level=5 / scale-factor=0 / refine-intra=0 / refine-inter=0 / refine-mv=0 / no-limit-sao / ctu-info=0 / no-lowpass-dct / refine-mv-type=0 / copy-pic=1 / max-ausize-factor=1.0 / no-dynamic-refine / no-single-sei
Default : Yes
Forced : No
Color range : Limited
Color primaries : BT.709
Transfer characteristics : BT.709
Matrix coefficients : BT.709
Audio #1
ID : 2
Format : AC-3
Format/Info : Audio Coding 3
Commercial name : Dolby Digital
Codec ID : A_AC3
Duration : 1 h 43 min
Bit rate mode : Constant
Bit rate : 256 kb/s
Channel(s) : 2 channels
Channel layout : L R
Sampling rate : 48.0 kHz
Frame rate : 31.250 FPS (1536 SPF)
Bit depth : 16 bits
Compression mode : Lossy
Stream size : 189 MiB (2%)
Title : DUB (Line)
Language : Russian
Service kind : Complete Main
Default : Yes
Forced : No
Audio #2
ID : 3
Format : AC-3
Format/Info : Audio Coding 3
Commercial name : Dolby Digital
Codec ID : A_AC3
Duration : 1 h 43 min
Bit rate mode : Constant
Bit rate : 448 kb/s
Channel(s) : 6 channels
Channel layout : L R C LFE Ls Rs
Sampling rate : 48.0 kHz
Frame rate : 31.250 FPS (1536 SPF)
Bit depth : 16 bits
Compression mode : Lossy
Stream size : 330 MiB (4%)
Title : MVO (HDRezka studio)
Language : Russian
Service kind : Complete Main
Default : No
Forced : No
Audio #3
ID : 4
Format : AC-3
Format/Info : Audio Coding 3
Commercial name : Dolby Digital
Codec ID : A_AC3
Duration : 1 h 43 min
Bit rate mode : Constant
Bit rate : 640 kb/s
Channel(s) : 6 channels
Channel layout : L R C LFE Ls Rs
Sampling rate : 48.0 kHz
Frame rate : 31.250 FPS (1536 SPF)
Bit depth : 16 bits
Compression mode : Lossy
Stream size : 472 MiB (5%)
Title : AVO (Дольский)
Language : Russian
Service kind : Complete Main
Default : No
Forced : No
Audio #4
ID : 5
Format : AC-3
Format/Info : Audio Coding 3
Commercial name : Dolby Digital
Codec ID : A_AC3
Duration : 1 h 43 min
Bit rate mode : Constant
Bit rate : 640 kb/s
Channel(s) : 6 channels
Channel layout : L R C LFE Ls Rs
Sampling rate : 48.0 kHz
Frame rate : 31.250 FPS (1536 SPF)
Bit depth : 16 bits
Compression mode : Lossy
Stream size : 472 MiB (5%)
Title : AVO (BadBajo)
Language : Russian
Service kind : Complete Main
Default : No
Forced : No
Audio #5
ID : 6
Format : AC-3
Format/Info : Audio Coding 3
Commercial name : Dolby Digital
Codec ID : A_AC3
Duration : 1 h 43 min
Bit rate mode : Constant
Bit rate : 384 kb/s
Channel(s) : 6 channels
Channel layout : L R C LFE Ls Rs
Sampling rate : 48.0 kHz
Frame rate : 31.250 FPS (1536 SPF)
Bit depth : 16 bits
Compression mode : Lossy
Stream size : 283 MiB (3%)
Title : MVO (HDRezka studio)
Language : Ukrainian
Service kind : Complete Main
Default : No
Forced : No
Audio #6
ID : 7
Format : E-AC-3
Format/Info : Enhanced AC-3
Commercial name : Dolby Digital Plus
Codec ID : A_EAC3
Duration : 1 h 43 min
Bit rate mode : Constant
Bit rate : 640 kb/s
Channel(s) : 6 channels
Channel layout : L R C LFE Ls Rs
Sampling rate : 48.0 kHz
Frame rate : 31.250 FPS (1536 SPF)
Compression mode : Lossy
Stream size : 472 MiB (5%)
Title : Original
Language : English
Service kind : Complete Main
Default : No
Forced : No
Text #1
ID : 8
Format : UTF-8
Codec ID : S_TEXT/UTF8
Codec ID/Info : UTF-8 Plain Text
Duration : 1 h 32 min
Bit rate : 1 b/s
Count of elements : 26
Stream size : 1.27 KiB (0%)
Title : Forced (Enigma)
Language : Russian
Default : Yes
Forced : No
Text #2
ID : 9
Format : UTF-8
Codec ID : S_TEXT/UTF8
Codec ID/Info : UTF-8 Plain Text
Duration : 1 h 30 min
Bit rate : 4 b/s
Count of elements : 59
Stream size : 3.12 KiB (0%)
Title : Forced (HDRezka studio)
Language : Russian
Default : No
Forced : No
Text #3
ID : 10
Format : UTF-8
Codec ID : S_TEXT/UTF8
Codec ID/Info : UTF-8 Plain Text
Duration : 1 h 32 min
Bit rate : 30 b/s
Count of elements : 521
Stream size : 20.9 KiB (0%)
Title : Full (Enigma)
Language : Russian
Default : No
Forced : No
Text #4
ID : 11
Format : UTF-8
Codec ID : S_TEXT/UTF8
Codec ID/Info : UTF-8 Plain Text
Duration : 1 h 31 min
Bit rate : 1 b/s
Count of elements : 25
Stream size : 1.19 KiB (0%)
Title : Forced
Language : Ukrainian
Default : No
Forced : No
Text #5
ID : 12
Format : UTF-8
Codec ID : S_TEXT/UTF8
Codec ID/Info : UTF-8 Plain Text
Duration : 43 min 44 s
Bit rate : 0 b/s
Count of elements : 7
Stream size : 172 Bytes (0%)
Title : Forced
Language : English
Default : No
Forced : No
Text #6
ID : 13
Format : UTF-8
Codec ID : S_TEXT/UTF8
Codec ID/Info : UTF-8 Plain Text
Duration : 1 h 29 min
Bit rate : 19 b/s
Count of elements : 515
Stream size : 12.6 KiB (0%)
Title : Full
Language : English
Default : No
Forced : No
Text #7
ID : 14
Format : UTF-8
Codec ID : S_TEXT/UTF8
Codec ID/Info : UTF-8 Plain Text
Duration : 1 h 42 min
Bit rate : 25 b/s
Count of elements : 986
Stream size : 19.2 KiB (0%)
Title : SDH
Language : English
Default : No
Forced : No
Menu
00:00:00.000 : :1
00:05:57.000 : :2
00:09:53.000 : :3
00:15:00.000 : :4
00:21:10.000 : :5
00:24:50.000 : :6
00:31:43.000 : :7
00:41:00.000 : :8
00:49:05.000 : :9
00:56:04.000 : :10
01:02:48.000 : :11
01:08:55.000 : :12
01:14:08.000 : :13
01:21:13.000 : :14
01:26:32.000 : :15
01:31:15.000 : :16

Скриншоты

[Цитировать]



Показать сообщения:    

Текущее время: 19-Июн 05:46

Часовой пояс: UTC + 6


Вы не можете начинать темы
Вы не можете отвечать на сообщения
Вы не можете редактировать свои сообщения
Вы не можете удалять свои сообщения
Вы не можете голосовать в опросах
Вы не можете прикреплять файлы к сообщениям
Вы не можете скачивать файлы

!ВНИМАНИЕ!
Сайт не предоставляет электронные версии произведений, а занимается лишь коллекционированием и каталогизацией ссылок, присылаемых и публикуемых на форуме нашими читателями. Если вы являетесь правообладателем какого-либо представленного материала и не желаете, чтобы ссылка на него находилась в нашем каталоге, свяжитесь с нами, и мы незамедлительно удалим ее. Файлы для обмена на трекере предоставлены пользователями сайта, и администрация не несет ответственности за их содержание. Просьба не заливать файлы, защищенные авторскими правами, а также файлы нелегального содержания!