***Уважаемые пользователи и гости !!! Сайт переехал на новый домен Torrents-club.info. Просьба изменить ваши закладки! ***
 
[ Сегодня идет свободное скачивание без начисления Download ]


Статистика раздачи
Нет
 
   
 
 
 
Годзилла против Конга
Godzilla vs. Kong
«Один из них падет»
- Год выпуска: 2021
Страна: США, Австралия, Канада, Индия
Жанр: боевик, фантастика
Продолжительность: 01:53:09
Перевод: Профессиональный дублированный (iTunes)
Режиссер: Адам Вингард / Adam Wingard-Роли исполняли (дублировали):
Nathan Lind - Александр Скарсгард (Алексей Мясников)
Ilene Andrews - Ребекка Холл (Полина Щербакова)
Jia - Кэйли Хоттл
Madison Russell - Милли Бобби Браун (Василиса Эльдарова)
Bernie Hayes - Брайан Тайри Генри (Пётр Иващенко)
Josh Valentine - Джулиан Деннисон (Владимир Войтюк)
Maia Simmons - Эйса Гонсалес (Анастасия Жаркова)
Walter Simmons - Демиан Бичир (Дмитрий Поляновский)
Ren Serizawa - Сюн Огури (Иван Калинин)
Mark Russell - Кайл Чандлер (Денис Некрасов)
Guillermin - Лэнс Реддик (Андрей Вальц)
-Описание: Конг и группа ученых отправляются в опасное путешествие в поисках родного дома гиганта. Среди них девочка Джия, единственная, кто умеет общаться с Конгом. Неожиданно они сталкиваются с разъяренным Годзиллой, разрушающим все на своем пути. Битва двух титанов, спровоцированная неведомыми силами — лишь малая часть тайны, спрятанной в недрах Земли.-Премьера: 24 марта 2021 (25 марта 2021)
Бюджет: $200 000 000
Кассовые сборы: $441 730 001
-Качество: BDRip (by Ash61)
Контейнер: MKV
Формат 3D: Half OverUnder / Вертикальная анаморфная стереопара
Порядок ракурсов: левый ракурс первый-Видео: AVC / 1920х1080p / 23,976 fps / 11.0 Mbps
Аудио: #1 - Русский / AC3 / 48 KHz / 5.1 ch / 384 Kbps (Дубляж - iTunes)
#2 - Украинский / AC3 / 48 KHz / 5.1 ch / 384 Kbps (Дубляж) (спасибо Hurtom!)
#3 - English / AC3 / 48 KHz / 5.1 ch / 640 Kbps (Original - BD 3D)
Субтитры (SRT):
Вшитые (softsub): #1 - Русские Форсированные (вер. Ash61) (включены по умолчанию)
#2 - Русские Полные
#3 - Украинские Форсированные (Hurtom)
#4 - English SDH
Внешние (UTF-8): #1 - Русские Форсированные (вер. Ash61) (включены по умолчанию)
#2 - Русские Полные
#3 - Украинские Форсированные (Hurtom)

MediaInfo

General
Unique ID : 213540474956825114034865703509129960731 (0xA0A66646032310529E04711B56081D1B)
Complete name : D:GodzillaVsKong(2021)3D-hOU(Ash61)GodzillaVsKong(2021)3D-hOU(Ash61).mkv
Format : Matroska
Format version : Version 2
File size : 9.81 GiB
Duration : 1 h 53 min
Overall bit rate : 12.4 Mb/s
Movie name : Годзилла против Конга / Godzilla vs. Kong (2021) in 3D
Encoded date : UTC 2021-06-16 22:23:58
Writing application : mkvmerge v5.8.0 ('No Sleep / Pillow') built on Sep 2 2012 15:37:04
Writing library : libebml v1.2.3 + libmatroska v1.3.0
Video
ID : 1
Format : AVC
Format/Info : Advanced Video Codec
Format profile : High@L4.1
Format settings : CABAC / 4 Ref Frames
Format settings, CABAC : Yes
Format settings, Reference : 4 frames
Codec ID : V_MPEG4/ISO/AVC
Duration : 1 h 53 min
Bit rate : 11.0 Mb/s
Width : 1 920 pixels
Height : 1 080 pixels
Display aspect ratio : 16:9
Frame rate mode : Constant
Frame rate : 23.976 (24000/1001) FPS
Color space : YUV
Chroma subsampling : 4:2:0
Bit depth : 8 bits
Scan type : Progressive
Bits/(Pixel*Frame) : 0.221
Stream size : 8.50 GiB (87%)
Title : BDRip by Ash61
Writing library : x264 core 146 r2538 121396c
Encoding settings : cabac=1 / ref=4 / deblock=1:-3:-3 / analyse=0x3:0x113 / me=umh / subme=10 / psy=1 / psy_rd=1.00:0.00 / mixed_ref=1 / me_range=32 / chroma_me=1 / trellis=2 / 8x8dct=1 / cqm=0 / deadzone=21,11 / fast_pskip=0 / chroma_qp_offset=-2 / threads=12 / lookahead_threads=2 / sliced_threads=0 / nr=0 / decimate=0 / interlaced=0 / bluray_compat=0 / constrained_intra=0 / bframes=8 / b_pyramid=2 / b_adapt=2 / b_bias=0 / direct=3 / weightb=1 / open_gop=0 / weightp=2 / keyint=250 / keyint_min=23 / scenecut=40 / intra_refresh=0 / rc_lookahead=60 / rc=2pass / mbtree=0 / bitrate=11000 / ratetol=1.0 / qcomp=0.70 / qpmin=0 / qpmax=69 / qpstep=4 / cplxblur=20.0 / qblur=0.5 / vbv_maxrate=40000 / vbv_bufsize=30000 / nal_hrd=none / filler=0 / frame-packing=4 / ip_ratio=1.40 / pb_ratio=1.30 / aq=1:0.70
Language : English
Default : Yes
Forced : No
Audio #1
ID : 2
Format : AC-3
Format/Info : Audio Coding 3
Commercial name : Dolby Digital
Codec ID : A_AC3
Duration : 1 h 53 min
Bit rate mode : Constant
Bit rate : 384 kb/s
Channel(s) : 6 channels
Channel layout : L R C LFE Ls Rs
Sampling rate : 48.0 kHz
Frame rate : 31.250 FPS (1536 SPF)
Compression mode : Lossy
Stream size : 311 MiB (3%)
Title : Дубляж (iTunes)
Language : Russian
Service kind : Complete Main
Default : Yes
Forced : No
Audio #2
ID : 3
Format : AC-3
Format/Info : Audio Coding 3
Commercial name : Dolby Digital
Codec ID : A_AC3
Duration : 1 h 53 min
Bit rate mode : Constant
Bit rate : 384 kb/s
Channel(s) : 6 channels
Channel layout : L R C LFE Ls Rs
Sampling rate : 48.0 kHz
Frame rate : 31.250 FPS (1536 SPF)
Compression mode : Lossy
Stream size : 311 MiB (3%)
Title : Дубляж
Language : Ukrainian
Service kind : Complete Main
Default : No
Forced : No
Audio #3
ID : 4
Format : AC-3
Format/Info : Audio Coding 3
Commercial name : Dolby Digital
Codec ID : A_AC3
Duration : 1 h 53 min
Bit rate mode : Constant
Bit rate : 640 kb/s
Channel(s) : 6 channels
Channel layout : L R C LFE Ls Rs
Sampling rate : 48.0 kHz
Frame rate : 31.250 FPS (1536 SPF)
Compression mode : Lossy
Stream size : 518 MiB (5%)
Title : Original
Language : English
Service kind : Complete Main
Default : No
Forced : No
Text #1
ID : 5
Format : UTF-8
Codec ID : S_TEXT/UTF8
Codec ID/Info : UTF-8 Plain Text
Title : Форсированные (вер. Ash61)
Language : Russian
Default : Yes
Forced : No
Text #2
ID : 6
Format : UTF-8
Codec ID : S_TEXT/UTF8
Codec ID/Info : UTF-8 Plain Text
Title : Полные
Language : Russian
Default : No
Forced : No
Text #3
ID : 7
Format : UTF-8
Codec ID : S_TEXT/UTF8
Codec ID/Info : UTF-8 Plain Text
Title : Форсированные
Language : Ukrainian
Default : No
Forced : No
Text #4
ID : 8
Format : UTF-8
Codec ID : S_TEXT/UTF8
Codec ID/Info : UTF-8 Plain Text
Title : SDH
Language : English
Default : No
Forced : No
Menu
00:00:00.000 : :1
00:09:51.591 : :2
00:20:07.497 : :3
00:29:02.365 : :4
00:38:39.733 : :5
00:49:15.994 : :6
00:57:17.016 : :7
01:09:07.975 : :8
01:18:33.875 : :9
01:30:06.109 : :10
01:41:58.944 : :11

Для оценки 3Д - Анимированные скрины
























[Цитировать]



Показать сообщения:    

Текущее время: 25-Июл 11:20

Часовой пояс: UTC + 6


Вы не можете начинать темы
Вы не можете отвечать на сообщения
Вы не можете редактировать свои сообщения
Вы не можете удалять свои сообщения
Вы не можете голосовать в опросах
Вы не можете прикреплять файлы к сообщениям
Вы не можете скачивать файлы

!ВНИМАНИЕ!
Сайт не предоставляет электронные версии произведений, а занимается лишь коллекционированием и каталогизацией ссылок, присылаемых и публикуемых на форуме нашими читателями. Если вы являетесь правообладателем какого-либо представленного материала и не желаете, чтобы ссылка на него находилась в нашем каталоге, свяжитесь с нами, и мы незамедлительно удалим ее. Файлы для обмена на трекере предоставлены пользователями сайта, и администрация не несет ответственности за их содержание. Просьба не заливать файлы, защищенные авторскими правами, а также файлы нелегального содержания!