***Уважаемые пользователи и гости !!! Сайт переехал на новый домен Torrents-club.info. Просьба изменить ваши закладки! ***
 
[ Сегодня идет свободное скачивание без начисления Download ]


Статистика раздачи
Скачал: [ 1 ]
 
   
 
 
 
 
Человеческое тело: мир внутри / Human: The World Within- Информация о фильме
Название: Человеческое тело: мир внутри
Оригинальное название: Human: The World Within
Год выхода: 2021
Жанр: документальный, исследование, анатомия, медицина
Режиссер: Netflix
В ролях: Джад Абумрад
О фильме:
Этот познавательный документальный сериал расскажет об удивительных процессах, протекающих в человеческом теле, представив последние научные открытия и истории из жизни.

Страна: США
Студия: Stephen David Entertainment Inc. for PBS & Netflix
Продолжительность: 6 x ~ 00:52:00
Перевод: Профессиональный многоголосый, закадровый [HDRezka Studio]
Файл
Кодек: H.264
Качество: WEBRip 720p
Видео: AVC, 1280x720 (16:9), 23.976 fps ~ 2500 Kbps
Звук:
AC3, 48 KHz, 6 ch ~ 448 Kb/s (русский)
E-AC3, 48 KHz, 6 ch ~ 640 Kb/s (английский)
Субтитры: русские, английские

Список серий:

Реакции. Вы узнаете, как мозг и его разветвленная нервная система преобразуют информацию в действие, взглянув на мир глазами боксера, спасателя и человека с бионическим протезом.
Пульс. Благодаря сердцу человек может выдерживать большие физические нагрузки и сильные эмоциональные потрясения, от страха на ледяном склоне до переживания горькой утраты.
Топливо. Центр сложной экосистемы, кишечник перерабатывает топливо, которое нужно нашему организму для поддержания сил и в пост, и во время бега на сверхмарафонские дистанции.
Защита. Узнайте, как сложная, невидимая и постоянно меняющаяся иммунная система с поразительной точностью и скоростью отражает угрозы микроскопических организмов.
Чувства. Фигуристы, тренирующие прыжки, парфюмер, пробуждающий воспоминания ароматами, певица с потерей слуха, постигающая высоту нот за счет остроты других органов чувств.
Рождение. Наука о гормонах, бесплодие, эпигенетика... Будущим родителям приходится сталкиваться с разными трудностями, чтобы познать радость ожидания и чудо рождения новой жизни.

MI:

Общее
Уникальный идентификатор : 197807236335899782952462856465852194493 (0x94D049B83E4718948FB8D1FE60BCDEBD)
Полное имя : J:wotHuman.The.World.Within.S01.720p.NFHuman.The.World.Within.S01E01.720p.mkv
Формат : Matroska
Версия формата : Version 4
Размер файла : 1,20 Гбайт
Продолжительность : 52 м. 48 с.
Режим общего битрейта : Переменный
Общий поток : 3 250 Кбит/сек
Дата кодирования : UTC 2021-06-19 09:21:18
Программа кодирования : mkvmerge v7.7.0 ('Six Voices') 32bit built on Feb 28 2015 23:23:00
Библиотека кодирования : libebml v1.3.1 + libmatroska v1.4.2
Видео
Идентификатор : 1
Формат : AVC
Формат/Информация : Advanced Video Codec
Профиль формата : Main@L3.1
Настройки формата : CABAC / 3 Ref Frames
Параметр CABAC формата : Да
Параметр RefFrames формата : 3 кадра
Идентификатор кодека : V_MPEG4/ISO/AVC
Продолжительность : 52 м. 47 с.
Вид битрейта : Переменный
Битрейт : 2 160 Кбит/сек
Номинальный битрейт : 3 135 Кбит/сек
Максимальный битрейт : 6 630 Кбит/сек
Ширина : 1 280 пикселей
Высота : 720 пикселей
Соотношение сторон : 16:9
Режим частоты кадров : Постоянный
Частота кадров : 23,976 (24000/1001) кадра/сек
Цветовое пространство : YUV
Субдискретизация насыщенности : 4:2:0
Битовая глубина : 8 бит
Тип развёртки : Прогрессивная
Бит/(Пиксели*Кадры) : 0.098
Размер потока : 816 Мбайт (66%)
Библиотека кодирования : x264 core 148 r2722 1b0121b
Настройки программы : cabac=1 / ref=3 / deblock=1:0:0 / analyse=0x1:0x111 / me=umh / subme=10 / psy=1 / psy_rd=1.00:0.00 / mixed_ref=1 / me_range=24 / chroma_me=1 / trellis=2 / 8x8dct=0 / cqm=0 / deadzone=21,11 / fast_pskip=1 / chroma_qp_offset=-2 / threads=8 / lookahead_threads=1 / sliced_threads=0 / nr=0 / decimate=1 / interlaced=0 / bluray_compat=0 / stitchable=1 / constrained_intra=0 / bframes=2 / b_pyramid=0 / b_adapt=2 / b_bias=0 / direct=3 / weightb=1 / open_gop=0 / weightp=2 / keyint=250 / keyint_min=23 / scenecut=0 / intra_refresh=0 / rc_lookahead=48 / rc=2pass / mbtree=1 / bitrate=3135 / ratetol=1.0 / qcomp=0.50 / qpmin=6 / qpmax=51 / qpstep=4 / cplxblur=20.0 / qblur=0.5 / vbv_maxrate=6630 / vbv_bufsize=8840 / nal_hrd=vbr / filler=0 / ip_ratio=1.40 / aq=1:1.00
Язык : English
Default : Да
Forced : Нет
Аудио #1
Идентификатор : 2
Формат : AC-3
Формат/Информация : Audio Coding 3
Коммерческое название : Dolby Digital
Идентификатор кодека : A_AC3
Продолжительность : 52 м. 48 с.
Вид битрейта : Постоянный
Битрейт : 448 Кбит/сек
Каналы : 6 каналов
Channel layout : L R C LFE Ls Rs
Частота : 48,0 КГц
Частота кадров : 31,250 кадров/сек (1536 SPF)
Метод сжатия : С потерями
Размер потока : 169 Мбайт (14%)
Заголовок : hdrezka
Язык : Russian
Service kind : Complete Main
Default : Да
Forced : Нет
Аудио #2
Идентификатор : 3
Формат : E-AC-3
Формат/Информация : Enhanced AC-3
Коммерческое название : Dolby Digital Plus
Идентификатор кодека : A_EAC3
Продолжительность : 52 м. 47 с.
Вид битрейта : Постоянный
Битрейт : 640 Кбит/сек
Каналы : 6 каналов
Channel layout : L R C LFE Ls Rs
Частота : 48,0 КГц
Частота кадров : 31,250 кадров/сек (1536 SPF)
Метод сжатия : С потерями
Размер потока : 242 Мбайт (20%)
Язык : English
Service kind : Complete Main
Default : Нет
Forced : Нет
Текст #1
Идентификатор : 4
Формат : UTF-8
Идентификатор кодека : S_TEXT/UTF8
Идентификатор кодека/Информация : UTF-8 Plain Text
Продолжительность : 45 м. 15 с.
Битрейт : 13 бит/сек
Count of elements : 80
Размер потока : 4,47 Кбайт (0%)
Язык : Russian
Default : Нет
Forced : Нет
Текст #2
Идентификатор : 5
Формат : UTF-8
Идентификатор кодека : S_TEXT/UTF8
Идентификатор кодека/Информация : UTF-8 Plain Text
Продолжительность : 51 м. 56 с.
Битрейт : 141 бит/сек
Count of elements : 751
Размер потока : 53,6 Кбайт (0%)
Заголовок : Russian
Язык : Russian
Default : Нет
Forced : Нет
Текст #3
Идентификатор : 6
Формат : UTF-8
Идентификатор кодека : S_TEXT/UTF8
Идентификатор кодека/Информация : UTF-8 Plain Text
Продолжительность : 51 м. 30 с.
Битрейт : 90 бит/сек
Count of elements : 748
Размер потока : 34,1 Кбайт (0%)
Заголовок : English (SDH)
Язык : English
Default : Нет
Forced : Нет

Скриншоты

[Цитировать]



Показать сообщения:    

Текущее время: 25-Июл 11:22

Часовой пояс: UTC + 6


Вы не можете начинать темы
Вы не можете отвечать на сообщения
Вы не можете редактировать свои сообщения
Вы не можете удалять свои сообщения
Вы не можете голосовать в опросах
Вы не можете прикреплять файлы к сообщениям
Вы не можете скачивать файлы

!ВНИМАНИЕ!
Сайт не предоставляет электронные версии произведений, а занимается лишь коллекционированием и каталогизацией ссылок, присылаемых и публикуемых на форуме нашими читателями. Если вы являетесь правообладателем какого-либо представленного материала и не желаете, чтобы ссылка на него находилась в нашем каталоге, свяжитесь с нами, и мы незамедлительно удалим ее. Файлы для обмена на трекере предоставлены пользователями сайта, и администрация не несет ответственности за их содержание. Просьба не заливать файлы, защищенные авторскими правами, а также файлы нелегального содержания!