***Уважаемые пользователи и гости !!! Сайт переехал на новый домен Torrents-club.info. Просьба изменить ваши закладки! ***
 
[ Сегодня идет свободное скачивание без начисления Download ]


Статистика раздачи
Скачал: [ 4 ]
 
   
 
 
 
 
Толмен. Первый демон / Толмен. Демон леса / The Toll- Информация о фильме
Название: Толмен. Первый демон / Толмен. Демон леса
Оригинальное название: The Toll
Год выхода: 2019
Жанр: Ужасы
Режиссер: Майкл Нэйдер
В ролях: Джордан Хэйес, Макс Топплин, Джеймс Макгоун, Розмари Дансмор, Томас Л. Колфорд, Шэрон МакФарлэйн, Яна Пек, Джесс Браун, Шон Грегори Салливан, Энтони Юлк

О фильме: Кэми направляется в гости к отцу и, устав после изнурительного перелёта, вызывает такси. Водитель сразу кажется ей подозрительным и неприятным, а когда он сворачивает на лесную дорогу, тревога девушки только усиливается. Внезапно машина глохнет. Думая, что таксист всё это подстроил, Кэми решает вернуться на привычный маршрут пешком, но не тут-то было. Каким-то образом она приходит к машине с другой стороны, и теперь им с перепуганным таксистом кажется, что за ними кто-то следит.
Страна: Канада
Студия: 4 AM Films, Always Hungry Productions
Продолжительность: 01:20:52
Перевод: Дублированный | iTunes
Качество: BDRip 1080p
Видео: MPEG-4 AVC, 1920x806, 14.5 Mbit/s, 23.976 fps
Аудио #01: 48 kHz, AC3, 5.1, 384 Kbps | iTunes | RUS |
Аудио #02: 48 kHz, AC3, 5.1, 640 Kbps | Оригинал | ENG |
Субтитры: Английские

Скриншоты:

MI

General
Unique ID : 63730043054230842485943920762562424083 (0x2FF1F5B741AD7EB8BF8E0A3D655A2D13)
Complete name : G:VideoThe.Toll.2020.BDRip.1080p.seleZen.mkv
Format : Matroska
Format version : Version 4
File size : 8.79 GiB
Duration : 1 h 20 min
Overall bit rate : 15.6 Mb/s
Movie name : The Toll 2020 from seleZen
Encoded date : UTC 2021-07-17 22:50:30
Writing application : mkvmerge v53.0.0 ('Fool's Gold') 64-bit
Writing library : libebml v1.4.1 + libmatroska v1.6.2
Video
ID : 1
Format : AVC
Format/Info : Advanced Video Codec
Format profile : High@L4.1
Format settings : CABAC / 5 Ref Frames
Format settings, CABAC : Yes
Format settings, Reference : 5 frames
Codec ID : V_MPEG4/ISO/AVC
Duration : 1 h 20 min
Bit rate : 14.5 Mb/s
Width : 1 920 pixels
Height : 806 pixels
Display aspect ratio : 2.40:1
Frame rate mode : Constant
Frame rate : 23.976 (24000/1001) FPS
Color space : YUV
Chroma subsampling : 4:2:0
Bit depth : 8 bits
Scan type : Progressive
Bits/(Pixel*Frame) : 0.392
Stream size : 8.21 GiB (93%)
Title : playHD
Writing library : x264 core 160 r3000+53 e3e4c3e t_mod_New [(8 & 10)-bit@all X86_64]
Encoding settings : cabac=1 / ref=5 / deblock=1:-3:-3 / analyse=0x3:0x133 / me=umh / subme=10 / psy=1 / fade_compensate=0.00 / psy_rd=1.00:0.00 / mixed_ref=1 / me_range=32 / chroma_me=1 / trellis=2 / 8x8dct=1 / cqm=0 / deadzone=21,11 / fast_pskip=0 / chroma_qp_offset=-2 / threads=24 / lookahead_threads=4 / sliced_threads=0 / nr=0 / decimate=0 / interlaced=0 / bluray_compat=0 / constrained_intra=0 / fgo=0 / bframes=8 / b_pyramid=2 / b_adapt=2 / b_bias=0 / direct=3 / weightb=1 / open_gop=0 / weightp=2 / keyint=250 / keyint_min=23 / scenecut=40 / intra_refresh=0 / rc=crf / mbtree=0 / crf=18.0000 / qcomp=0.60 / qpmin=0:0:0 / qpmax=69:69:69 / qpstep=4 / ip_ratio=1.30 / pb_ratio=1.20 / aq=3:0.85 / aq-sensitivity=10.00 / aq-factor=1.00:1.00:1.00 / aq2=0 / aq3=0
Language : English
Default : Yes
Forced : No
Audio #1
ID : 2
Format : AC-3
Format/Info : Audio Coding 3
Commercial name : Dolby Digital
Codec ID : A_AC3
Duration : 1 h 20 min
Bit rate mode : Constant
Bit rate : 384 kb/s
Channel(s) : 6 channels
Channel layout : L R C LFE Ls Rs
Sampling rate : 48.0 kHz
Frame rate : 31.250 FPS (1536 SPF)
Compression mode : Lossy
Stream size : 222 MiB (2%)
Title : iTunes
Language : Russian
Service kind : Complete Main
Default : Yes
Forced : Yes
Audio #2
ID : 3
Format : AC-3
Format/Info : Audio Coding 3
Commercial name : Dolby Digital
Codec ID : A_AC3
Duration : 1 h 20 min
Bit rate mode : Constant
Bit rate : 640 kb/s
Channel(s) : 6 channels
Channel layout : L R C LFE Ls Rs
Sampling rate : 48.0 kHz
Frame rate : 31.250 FPS (1536 SPF)
Compression mode : Lossy
Stream size : 370 MiB (4%)
Title : Original
Language : English
Service kind : Complete Main
Default : No
Forced : No
Text
ID : 4
Format : UTF-8
Codec ID : S_TEXT/UTF8
Codec ID/Info : UTF-8 Plain Text
Duration : 1 h 14 min
Bit rate : 46 b/s
Count of elements : 937
Stream size : 25.3 KiB (0%)
Language : English
Default : No
Forced : No
Menu
00:00:00.000 : :Chapter 01
00:04:13.545 : :Chapter 02
00:07:35.372 : :Chapter 03
00:12:34.545 : :Chapter 04
00:17:01.604 : :Chapter 05
00:20:47.788 : :Chapter 06
00:26:08.901 : :Chapter 07
00:29:02.908 : :Chapter 08
00:36:34.651 : :Chapter 09
00:41:29.237 : :Chapter 10
00:44:46.183 : :Chapter 11
00:49:15.244 : :Chapter 12
00:54:55.292 : :Chapter 13
01:00:15.612 : :Chapter 14
01:05:43.940 : :Chapter 15
01:13:30.531 : :Chapter 16

[Цитировать]



Показать сообщения:    

Текущее время: 24-Сен 18:12

Часовой пояс: UTC + 6


Вы не можете начинать темы
Вы не можете отвечать на сообщения
Вы не можете редактировать свои сообщения
Вы не можете удалять свои сообщения
Вы не можете голосовать в опросах
Вы не можете прикреплять файлы к сообщениям
Вы не можете скачивать файлы

!ВНИМАНИЕ!
Сайт не предоставляет электронные версии произведений, а занимается лишь коллекционированием и каталогизацией ссылок, присылаемых и публикуемых на форуме нашими читателями. Если вы являетесь правообладателем какого-либо представленного материала и не желаете, чтобы ссылка на него находилась в нашем каталоге, свяжитесь с нами, и мы незамедлительно удалим ее. Файлы для обмена на трекере предоставлены пользователями сайта, и администрация не несет ответственности за их содержание. Просьба не заливать файлы, защищенные авторскими правами, а также файлы нелегального содержания!