***Уважаемые пользователи и гости !!! Сайт переехал на новый домен Torrents-club.info. Просьба изменить ваши закладки! ***
 
[ Сегодня идет свободное скачивание без начисления Download ]


Статистика раздачи
Скачал: [ 1 ]
 
   
 
 
 
 
Война будущего / The Tomorrow War (2021) WEB-DLRip [H.265/1080p-LQ]- Производство: США / Skydance Productions, Lit Entertainment Group, New Republic Pictures
Жанр: Фантастика, боевик
Режиссер: Крис МакКей
Актеры:
Крис Пратт, Ивонн Страховски, Дж.К. Симмонс, Бетти Гилпин, Сэм Ричардсон, Жасмин Мэтьюз, Эдвин Ходж, Райан Кира Армстронг, Кит Пауэрс, Мэри Линн Райскаб
Описание:
В будущем идёт разрушительный конфликт с инопланетной расой. В попытке переломить ход войны учёные начинают призывать в свою армию солдат из прошлого.

Возраст: этот продукт не был классифицирован
Рейтинг MPAA: PG-13 (детям до 13 лет просмотр нежелателен)
Дата мировой премьеры: 2 июля 2021
Цифровой релиз: 2 июля 2021, «Amazon Prime Video»
Продолжительность: 02:18:06
Качество видео: WEB-DLRip (1080p)
Перевод: Профессиональный многоголосый (NewComers)
Язык озвучки: Русский, английский
Субтитры: Русские
Видео: HEVC/H.265, 1920x800, ~6640 kbps, 59.94 fps
Аудио 1: AC3, 6 ch, 384 kbps | Русский (NewComers)
Аудио 2: AC3, 6 ch, 384 kbps | Английский

MediaInfo:

Общее
Уникальный идентификатор : 81001985493201195069295805054381145631 (0x3CF06A399D25A0465FC77A8E57FB3E1F)
Полное имя : The Tomorrow War (2021) WEB-DLRip (1920x800) HEVC.mkv
Формат : Matroska
Версия формата : Version 4 / Version 2
Размер файла : 7,15 Гбайт
Продолжительность : 2 ч. 18 м.
Общий поток : 7411 Кбит/сек
Дата кодирования : UTC 2021-07-18 18:52:05
Программа кодирования : mkvmerge v47.0.0 ('Black Flag') 64-bit
Библиотека кодирования : libebml v1.3.10 + libmatroska v1.5.2
Видео
Идентификатор : 1
Формат : HEVC
Формат/Информация : High Efficiency Video Coding
Профиль формата : Main 10@L4.1@Main
Идентификатор кодека : V_MPEGH/ISO/HEVC
Продолжительность : 2 ч. 18 м.
Битрейт : 6640 Кбит/сек
Ширина : 1920 пикселей
Высота : 800 пикселей
Соотношение сторон : 2,40:1
Режим частоты кадров : Постоянный
Частота кадров : 59,940 (60000/1001) кадров/сек
Цветовое пространство : YUV
Субдискретизация насыщенности : 4:2:0
Битовая глубина : 10 бит
Бит/(Пиксели*Кадры) : 0.072
Размер потока : 6,40 Гбайт (90%)
Default : Да
Forced : Нет
Цветовой диапазон : Limited
Основные цвета : BT.709
Характеристики трансфера : BT.709
Коэффициенты матрицы : BT.709
Аудио #1
Идентификатор : 2
Формат : AC-3
Формат/Информация : Audio Coding 3
Параметр Endianness формата : Big
Идентификатор кодека : A_AC3
Продолжительность : 2 ч. 18 м.
Вид битрейта : Постоянный
Битрейт : 384 Кбит/сек
Каналы : 6 каналов
Расположение каналов : Front: L C R, Side: L R, LFE
Частота : 48,0 КГц
Частота кадров : 31,250 кадров/сек (1536 SPF)
Битовая глубина : 16 бит
Метод сжатия : С потерями
Размер потока : 379 Мбайт (5%)
ServiceKind/String : Complete Main
Default : Да
Forced : Да
Аудио #2
Идентификатор : 3
Формат : AC-3
Формат/Информация : Audio Coding 3
Параметр Endianness формата : Big
Идентификатор кодека : A_AC3
Продолжительность : 2 ч. 18 м.
Вид битрейта : Постоянный
Битрейт : 384 Кбит/сек
Каналы : 6 каналов
Расположение каналов : Front: L C R, Side: L R, LFE
Частота : 48,0 КГц
Частота кадров : 31,250 кадров/сек (1536 SPF)
Битовая глубина : 16 бит
Метод сжатия : С потерями
Размер потока : 379 Мбайт (5%)
Заголовок : English
Язык : English
ServiceKind/String : Complete Main
Default : Нет
Forced : Нет
Текст
Идентификатор : 4
Формат : UTF-8
Идентификатор кодека : S_TEXT/UTF8
Идентификатор кодека/Информация : UTF-8 Plain Text
Продолжительность : 2 ч. 16 м.
Битрейт : 77 бит/сек
ElementCount : 1483
Размер потока : 77,5 Кбайт (0%)
Заголовок : Russian
Язык : Russian
Default : Нет
Forced : Нет
Скриншоты:

[Цитировать]



Показать сообщения:    

Текущее время: 25-Июл 12:06

Часовой пояс: UTC + 6


Вы не можете начинать темы
Вы не можете отвечать на сообщения
Вы не можете редактировать свои сообщения
Вы не можете удалять свои сообщения
Вы не можете голосовать в опросах
Вы не можете прикреплять файлы к сообщениям
Вы не можете скачивать файлы

!ВНИМАНИЕ!
Сайт не предоставляет электронные версии произведений, а занимается лишь коллекционированием и каталогизацией ссылок, присылаемых и публикуемых на форуме нашими читателями. Если вы являетесь правообладателем какого-либо представленного материала и не желаете, чтобы ссылка на него находилась в нашем каталоге, свяжитесь с нами, и мы незамедлительно удалим ее. Файлы для обмена на трекере предоставлены пользователями сайта, и администрация не несет ответственности за их содержание. Просьба не заливать файлы, защищенные авторскими правами, а также файлы нелегального содержания!