***Уважаемые пользователи и гости !!! Сайт переехал на новый домен Torrents-club.info. Просьба изменить ваши закладки! ***
 
[ Сегодня идет свободное скачивание без начисления Download ]


Статистика раздачи
Нет
 
   
 
 
 
-Infinite & Divine - Silver Lining--
Год издания: 2021
Страна: Sweden
Жанр: Melodic Hard Rock
Продолжительность: 00:47:13-Лейбл издания: Frontiers Music SRL
Страна-выпуска диска: Italy
Номер по каталогу: FR CD 1110-Формат: FLAC
Битрейт аудио: Lossless
Тип рипа: image +.cue
Наличие сканов в содержимом раздачи: да
-

Трэклист


01. I Feel Alive (3:54)
02. Infinite And Divine (3:54)
03. Keep On Moving (4:11)
04. Not Too Late (4:32)
05. Wasteland (3:55)
06. Burn No More (3:44)
07. We Are One (5:51)
08. Off The End Of The World (4:44)
09. You And I (4:57)
10. While You're Looking For Love (3:24)
11. Perplexed Perfection (4:11)
-

Лог создания рипа

Exact Audio Copy V1.5 from 20. February 2020
EAC extraction logfile from 20. June 2021, 16:01
Infinite & Divine / Silver Lining
Used drive  : HL-DT-STDVDRAM GUE0N   Adapter: 1  ID: 0
Read mode               : Secure
Utilize accurate stream : Yes
Defeat audio cache      : Yes
Make use of C2 pointers : No
Read offset correction                      : 102
Overread into Lead-In and Lead-Out          : No
Fill up missing offset samples with silence : Yes
Delete leading and trailing silent blocks   : No
Null samples used in CRC calculations       : Yes
Used interface                              : Native Win32 interface for Win NT & 2000
Used output format              : User Defined Encoder
Selected bitrate                : 128 kBit/s
Quality                         : High
Add ID3 tag                     : No
Command line compressor         : C:\Program Files (x86)\Exact Audio Copy\Flac\flac.exe
Additional command line options : -V -8 -T "Date=%year%" -T "Genre=%genre%" %source%
TOC of the extracted CD
     Track |   Start  |  Length  | Start sector | End sector
    ---------------------------------------------------------
        1  |  0:00.00 |  3:53.23 |         0    |    17497
        2  |  3:53.23 |  3:53.72 |     17498    |    35044
        3  |  7:47.20 |  4:10.68 |     35045    |    53862
        4  | 11:58.13 |  4:32.00 |     53863    |    74262
        5  | 16:30.13 |  3:54.10 |     74263    |    91822
        6  | 20:24.23 |  3:43.36 |     91823    |   108583
        7  | 24:07.59 |  5:50.03 |    108584    |   134836
        8  | 29:57.62 |  4:43.27 |    134837    |   156088
        9  | 34:41.14 |  4:56.66 |    156089    |   178354
       10  | 39:38.05 |  3:23.41 |    178355    |   193620
       11  | 43:01.46 |  4:10.66 |    193621    |   212436
Range status and errors
Selected range
     Filename C:\Users\Desktop\Infinite & Divine - Silver Lining.wav
     Peak level 95.9 %
     Extraction speed 4.0 X
     Range quality 100.0 %
     Test CRC 960F6F0B
     Copy CRC 960F6F0B
     Copy OK
No errors occurred
AccurateRip summary
Track  1  accurately ripped (confidence 4)  [498663AE]  (AR v2)
Track  2  accurately ripped (confidence 4)  [4242D801]  (AR v2)
Track  3  accurately ripped (confidence 4)  [4DC69E26]  (AR v2)
Track  4  accurately ripped (confidence 4)  [CA66F553]  (AR v2)
Track  5  accurately ripped (confidence 4)  [5DEFF4A2]  (AR v2)
Track  6  accurately ripped (confidence 4)  [F0E63419]  (AR v2)
Track  7  accurately ripped (confidence 4)  [E98169BF]  (AR v2)
Track  8  accurately ripped (confidence 4)  [54E3044D]  (AR v2)
Track  9  accurately ripped (confidence 4)  [2D860F1C]  (AR v2)
Track 10  accurately ripped (confidence 4)  [34047E9D]  (AR v2)
Track 11  accurately ripped (confidence 4)  [429563BD]  (AR v2)
All tracks accurately ripped
End of status report

Индексная карта (non-compilant .cue)

REM GENRE Rock
REM DATE 2021
REM DISCID 9F0B100B
REM COMMENT "ExactAudioCopy v1.5"
PERFORMER "Infinite & Divine"
TITLE "Silver Lining"
REM COMPOSER ""
FILE "Infinite & Divine - Silver Lining.flac" WAVE
  TRACK 01 AUDIO
    TITLE "I Feel Alive"
    PERFORMER "Infinite & Divine"
    REM COMPOSER ""
    INDEX 01 00:00:00
  TRACK 02 AUDIO
    TITLE "Infinite And Divine"
    PERFORMER "Infinite & Divine"
    REM COMPOSER ""
    INDEX 01 03:53:23
  TRACK 03 AUDIO
    TITLE "Keep On Moving"
    PERFORMER "Infinite & Divine"
    REM COMPOSER ""
    INDEX 01 07:47:20
  TRACK 04 AUDIO
    TITLE "Not Too Late"
    PERFORMER "Infinite & Divine"
    REM COMPOSER ""
    INDEX 01 11:58:13
  TRACK 05 AUDIO
    TITLE "Wasteland"
    PERFORMER "Infinite & Divine"
    REM COMPOSER ""
    INDEX 01 16:30:13
  TRACK 06 AUDIO
    TITLE "Burn No More"
    PERFORMER "Infinite & Divine"
    REM COMPOSER ""
    INDEX 01 20:24:23
  TRACK 07 AUDIO
    TITLE "We Are One"
    PERFORMER "Infinite & Divine"
    REM COMPOSER ""
    INDEX 01 24:07:59
  TRACK 08 AUDIO
    TITLE "Off The End Of The World"
    PERFORMER "Infinite & Divine"
    REM COMPOSER ""
    INDEX 01 29:57:62
  TRACK 09 AUDIO
    TITLE "You And I"
    PERFORMER "Infinite & Divine"
    REM COMPOSER ""
    INDEX 01 34:41:14
  TRACK 10 AUDIO
    TITLE "While You're Looking For Love"
    PERFORMER "Infinite & Divine"
    REM COMPOSER ""
    INDEX 01 39:38:05
  TRACK 11 AUDIO
    TITLE "Perplexed Perfection"
    PERFORMER "Infinite & Divine"
    REM COMPOSER ""
    INDEX 01 43:01:46
-

для ознакомления:

https://www.youtube.com/watch?v=_sKkY23jo6I
--

[Цитировать]



Показать сообщения:    

Текущее время: 20-Сен 02:59

Часовой пояс: UTC + 6


Вы не можете начинать темы
Вы не можете отвечать на сообщения
Вы не можете редактировать свои сообщения
Вы не можете удалять свои сообщения
Вы не можете голосовать в опросах
Вы не можете прикреплять файлы к сообщениям
Вы не можете скачивать файлы

!ВНИМАНИЕ!
Сайт не предоставляет электронные версии произведений, а занимается лишь коллекционированием и каталогизацией ссылок, присылаемых и публикуемых на форуме нашими читателями. Если вы являетесь правообладателем какого-либо представленного материала и не желаете, чтобы ссылка на него находилась в нашем каталоге, свяжитесь с нами, и мы незамедлительно удалим ее. Файлы для обмена на трекере предоставлены пользователями сайта, и администрация не несет ответственности за их содержание. Просьба не заливать файлы, защищенные авторскими правами, а также файлы нелегального содержания!