***Уважаемые пользователи и гости !!! Сайт переехал на новый домен Torrents-club.info. Просьба изменить ваши закладки! ***
 
[ Сегодня идет свободное скачивание без начисления Download ]


Статистика раздачи
Скачал: [ 1 ]
 
   
 
 
 
 
Форсаж 9 / F9 (2021) [4K, HEVC, SDR / WEB-DL] (2160p) Год выпуска: 2021
Жанр: Боевик, триллер, криминал, приключения
Выпущено: США, Таиланд, Канада, One Race Films, Roth/Kirschenbaum Films, Perfect Storm Entertainment
Режиссер: Джастин Лин
Продолжительность: 02:22:51
Перевод: Дублированный, любительский двухголосый
Субтитры: Русские, английские
Возраст 12+

В ролях:
Вин Дизель, Джон Сина, Тайриз Гибсон, Лудакрис, Джордана Брюстер, Натали Эммануэль, Мишель Родригес, Хелен Миррен, Шарлиз Терон, Майкл Рукер

О фильме:
Доминик Торетто ведет спокойную жизнь вместе с Летти и своим сыном Брайаном, однако, они знают, что новая опасность всегда где-то рядом. В этот раз Доминику придется встретиться с призраками прошлого, если он хочет спасти самых близких. Команда снова собирается вместе, чтобы предотвратить дерзкий план по захвату мира, который придумал самый опасный преступник и безбашенный водитель из всех, с кем они сталкивались ранее. Ситуация усложняется тем, что этот человек — брат Доминика Джейкоб, которого много лет назад изгнали из семьи
Форсаж 9
Техданные
Качество: WEB-DL (2160p)
Видео: HEVC, 11.9 Mбит/с, 3836x1600, 23.976 Кадр/с, 10 Бит
Аудио: Русский (E-AC3, 6 ch, 448 Кбит/с), (AC3, 6 ch, 448 Кбит/с),, английские (Е-АС3+Atmos, 6 ch, 768 Кбит/с)

Релиз

Видео: MPEG-H HEVC Video / 11,9 Mbps / 3836x1600 / 23,976 fps / 2,40:1 / Main 10@L5@Main / 4:2:0 / 10 bits / SDR / BT.709
Аудио 1: Russian E-AC3 / 5.1 / 48 kHz / 448 kbps |Dub, Пифагор/Кинопоиск HD|
Аудио 2: Russian AC3 / 5.1 / 48 kHz / 448 kbps |DVO, Pazl Voice|
Аудио 3: English E-AC3+Atmos / 5.1 / 48 kHz / 768 kbps |original|
Субтитры: русские (forced, full), английские (full, SDH)
Рекламы нет

MediaInfo:

Общее
Уникальный идентификатор                 : 210595100694381995868280747458830547357 (0x9E6F241C4D55717445CDF12BEF20399D)
Полное имя                               : D:\UHD\Форсаж 9.2021.WEB-DL.2160p.SDR.mkv
Формат                                   : Matroska
Версия формата                           : Version 4
Размер файла                             : 13,6 Гбайт
Продолжительность                        : 2 ч. 22 м.
Общий поток                              : 13,6 Мбит/сек
Дата кодирования                         : UTC 2021-09-13 17:09:58
Программа кодирования                    : mkvmerge v61.0.0 ('So') 64-bit
Библиотека кодирования                   : libebml v1.4.2 + libmatroska v1.6.4
Attachments                              : poster.jpg
Видео
Идентификатор                            : 1
Формат                                   : HEVC
Формат/Информация                        : High Efficiency Video Coding
Профиль формата                          : Main 10@L5@High
Идентификатор кодека                     : V_MPEGH/ISO/HEVC
Продолжительность                        : 2 ч. 22 м.
Битрейт                                  : 11,9 Мбит/сек
Ширина                                   : 3 836 пикселей
Высота                                   : 1 600 пикселей
Соотношение сторон                       : 2,40:1
Соотношение сторон в оригинале           : 2,40:1
Режим частоты кадров                     : Постоянный
Частота кадров                           : 23,976 кадра/сек
Цветовое пространство                    : YUV
Субдискретизация насыщенности            : 4:2:0
Битовая глубина                          : 10 бит
Бит/(Пиксели*Кадры)                      : 0.081
Размер потока                            : 11,9 Гбайт (88%)
Default                                  : Да
Forced                                   : Нет
Цветовой диапазон                        : Limited
Основные цвета                           : BT.709
Характеристики трансфера                 : BT.709
Коэффициенты матрицы                     : BT.709
Аудио #1
Идентификатор                            : 2
Формат                                   : E-AC-3
Формат/Информация                        : Enhanced AC-3
Коммерческое название                    : Dolby Digital Plus
Идентификатор кодека                     : A_EAC3
Продолжительность                        : 2 ч. 22 м.
Вид битрейта                             : Постоянный
Битрейт                                  : 448 Кбит/сек
Каналы                                   : 6 каналов
Channel layout                           : L R C LFE Ls Rs
Частота                                  : 48,0 КГц
Частота кадров                           : 31,250 кадров/сек (1536 SPF)
Метод сжатия                             : С потерями
Размер потока                            : 458 Мбайт (3%)
Заголовок                                : Dub, Кинопоиск HD
Язык                                     : Russian
Service kind                             : Complete Main
Default                                  : Да
Forced                                   : Нет
Аудио #2
Идентификатор                            : 3
Формат                                   : AC-3
Формат/Информация                        : Audio Coding 3
Коммерческое название                    : Dolby Digital
Идентификатор кодека                     : A_AC3
Продолжительность                        : 2 ч. 22 м.
Вид битрейта                             : Постоянный
Битрейт                                  : 448 Кбит/сек
Каналы                                   : 6 каналов
Channel layout                           : L R C LFE Ls Rs
Частота                                  : 48,0 КГц
Частота кадров                           : 31,250 кадров/сек (1536 SPF)
Метод сжатия                             : С потерями
Размер потока                            : 458 Мбайт (3%)
Заголовок                                : DVO, Pazl Voice
Язык                                     : Russian
Service kind                             : Complete Main
Default                                  : Нет
Forced                                   : Нет
Аудио #3
Идентификатор                            : 4
Формат                                   : E-AC-3 JOC
Формат/Информация                        : Enhanced AC-3 with Joint Object Coding
Коммерческое название                    : Dolby Digital Plus with Dolby Atmos
Идентификатор кодека                     : A_EAC3
Продолжительность                        : 2 ч. 22 м.
Вид битрейта                             : Постоянный
Битрейт                                  : 768 Кбит/сек
Каналы                                   : 6 каналов
Channel layout                           : L R C LFE Ls Rs
Частота                                  : 48,0 КГц
Частота кадров                           : 31,250 кадров/сек (1536 SPF)
Метод сжатия                             : С потерями
Размер потока                            : 785 Мбайт (6%)
Язык                                     : English
Service kind                             : Complete Main
Default                                  : Нет
Forced                                   : Нет
Complexity index                         : 16
Number of dynamic objects                : 15
Bed channel count                        : 1 канал
Bed channel configuration                : LFE
Текст #1
Идентификатор                            : 5
Формат                                   : UTF-8
Идентификатор кодека                     : S_TEXT/UTF8
Идентификатор кодека/Информация          : UTF-8 Plain Text
Продолжительность                        : 1 ч. 29 м.
Битрейт                                  : 0 бит/сек
Count of elements                        : 8
Размер потока                            : 190 байт (0%)
Заголовок                                : forced
Язык                                     : Russian
Default                                  : Да
Forced                                   : Нет
Текст #2
Идентификатор                            : 6
Формат                                   : UTF-8
Идентификатор кодека                     : S_TEXT/UTF8
Идентификатор кодека/Информация          : UTF-8 Plain Text
Продолжительность                        : 2 ч. 12 м.
Битрейт                                  : 55 бит/сек
Count of elements                        : 1419
Размер потока                            : 53,2 Кбайт (0%)
Заголовок                                : full
Язык                                     : Russian
Default                                  : Нет
Forced                                   : Нет
Текст #3
Идентификатор                            : 7
Формат                                   : UTF-8
Идентификатор кодека                     : S_TEXT/UTF8
Идентификатор кодека/Информация          : UTF-8 Plain Text
Продолжительность                        : 2 ч. 16 м.
Битрейт                                  : 41 бит/сек
Count of elements                        : 1559
Размер потока                            : 42,0 Кбайт (0%)
Заголовок                                : full
Язык                                     : English
Default                                  : Нет
Forced                                   : Нет
Текст #4
Идентификатор                            : 8
Формат                                   : UTF-8
Идентификатор кодека                     : S_TEXT/UTF8
Идентификатор кодека/Информация          : UTF-8 Plain Text
Продолжительность                        : 2 ч. 22 м.
Битрейт                                  : 55 бит/сек
Count of elements                        : 2113
Размер потока                            : 57,6 Кбайт (0%)
Заголовок                                : SDH
Язык                                     : English
Default                                  : Нет
Forced                                   : Нет
Меню
00:00:00.000                             : Chapter 1
00:04:47.911                             : Chapter 2
00:11:11.546                             : Chapter 3
00:20:36.903                             : Chapter 4
00:25:26.901                             : Chapter 5
00:30:27.201                             : Chapter 6
00:34:20.351                             : Chapter 7
00:42:13.824                             : Chapter 8
00:49:40.105                             : Chapter 9
00:55:46.679                             : Chapter 10
00:59:58.306                             : Chapter 11
01:07:59.204                             : Chapter 12
01:19:29.853                             : Chapter 13
01:28:47.452                             : Chapter 14
01:34:53.777                             : Chapter 15
01:40:28.028                             : Chapter 16
01:50:57.198                             : Chapter 17
02:01:03.220                             : Chapter 18
02:05:22.604                             : Chapter 19
02:10:18.068                             : Chapter 20

Скриншоты

[Цитировать]

Торрент-файл обновлен
Добавлены переводы
Просьба перекачать торент файл
Приятного просмотра!!

[Цитировать]



Показать сообщения:    

Текущее время: 20-Сен 02:02

Часовой пояс: UTC + 6


Вы не можете начинать темы
Вы не можете отвечать на сообщения
Вы не можете редактировать свои сообщения
Вы не можете удалять свои сообщения
Вы не можете голосовать в опросах
Вы не можете прикреплять файлы к сообщениям
Вы не можете скачивать файлы

!ВНИМАНИЕ!
Сайт не предоставляет электронные версии произведений, а занимается лишь коллекционированием и каталогизацией ссылок, присылаемых и публикуемых на форуме нашими читателями. Если вы являетесь правообладателем какого-либо представленного материала и не желаете, чтобы ссылка на него находилась в нашем каталоге, свяжитесь с нами, и мы незамедлительно удалим ее. Файлы для обмена на трекере предоставлены пользователями сайта, и администрация не несет ответственности за их содержание. Просьба не заливать файлы, защищенные авторскими правами, а также файлы нелегального содержания!