***Уважаемые пользователи и гости !!! Сайт переехал на новый домен Torrents-club.info. Просьба изменить ваши закладки! ***
 
[ Сегодня идет свободное скачивание без начисления Download ]


Статистика раздачи
Нет
 
   
 
 
 
Ищу тебя- Год выхода: 2019
Страна: Украина
Студия: Кинокомпания "Киевтелефильм", Компания "Армада Филмз Продакшн", СВО
Жанр: Мелодрама
Продолжительность: ~00:53:30 - Серия
Перевод: Не требуется-Режиссер:
Виктор Конисевич-В ролях:
Ольга Веникова, Кирилл Дыцевич, Анна Ардова, Александр Тютин, Валерия Гуляева, Владимир Захарченко, Анатолий Зиновенко, Таисия Бойко, Александр Данильченко, Леонид Гончар, Селена Жмурко, Юлия Гапчук-О фильме:
Жизнь Саши Рудаковой рушится в одночасье, когда в огне пожара, при подозрительных обстоятельствах погибают его родители. Сашу поддерживает ее жених, и ей кажется, что боль может со временем утихнуть, но жених оказывается слишком слабым и предает Сашу, чтобы не вредить своей карьере. Жизнь дает Саше новый шанс и новую любовь, впрочем, Саша уже не верит никому…- -Качество: WEB-DL 1080p
Формат: MKV
Видео: MPEG-4 AVC, ~ 5000 Кбит/с, 1920x1080, 25 кадр/с
Аудио: AC3, 2 ch, 192 Кбит/с
Субтитры: Отсутствуют-

MI

General
Unique ID : 254653302716944374269921298460644035612 (0xBF94712E6185A2598475013FC8A14C1C)
Complete name : C:01.Ищу тебя.01.E01.(2019).WEB-DL (1080p).by.Nicodem.Files-x.mkv
Format : Matroska
File size : 1.95 GiB
Duration : 53mn 49s
Overall bit rate : 5 175 Kbps
Encoded date : UTC 2021-02-21 12:44:22
Writing application : mkvmerge v7.8.0 ('River Man') 32bit built on Apr 3 2015 12:11:22
Writing library : libebml v1.3.1 + libmatroska v1.4.2
Video
ID : 1
Format : AVC
Format/Info : Advanced Video Codec
Format profile : High@L4.1
Format settings, CABAC : Yes
Format settings, ReFrames : 3 frames
Format settings, GOP : M=3, N=33
Codec ID : V_MPEG4/ISO/AVC
Duration : 53mn 49s
Bit rate mode : Constant
Bit rate : 5 000 Kbps
Width : 1 920 pixels
Height : 1 080 pixels
Display aspect ratio : 16:9
Frame rate : 25.000 fps
Standard : PAL
Color space : YUV
Chroma subsampling : 4:2:0
Bit depth : 8 bits
Scan type : Progressive
Bits/(Pixel*Frame) : 0.096
Stream size : 1.83 GiB (94%)
Color primaries : BT.709-5, BT.1361, IEC 61966-2-4, SMPTE RP177
Transfer characteristics : BT.709-5, BT.1361
Matrix coefficients : BT.709-5, BT.1361, IEC 61966-2-4 709, SMPTE RP177
Audio
ID : 2
Format : AC-3
Format/Info : Audio Coding 3
Mode extension : CM (complete main)
Codec ID : A_AC3
Duration : 53mn 49s
Bit rate mode : Constant
Bit rate : 192 Kbps
Channel(s) : 2 channels
Channel positions : Front: L R
Sampling rate : 48.0 KHz
Bit depth : 16 bits
Compression mode : Lossy
Stream size : 73.9 MiB (4%)

Скриншоты


Релиз от Files-X

[Цитировать]

Прошу обновить скриншоты - неотображаются

[Цитировать]

Ищу тебя / Серии: 1-4 из 4 (Виктор Конисевич) [2019, Мелодрама, WEB-DL 1080p]
все читаемо

[Цитировать]

Konin, Скриншоты на др. хостинг залейте.. (не отображаются).

[Цитировать]

295218
Ищу тебя / Серии: 1-4 из 4 (Виктор Конисевич) [2019, Мелодрама, WEB-DL 1080p]
все читаемо

У меня все отражается

[Цитировать]



Показать сообщения:    

Текущее время: 20-Сен 02:26

Часовой пояс: UTC + 6


Вы не можете начинать темы
Вы не можете отвечать на сообщения
Вы не можете редактировать свои сообщения
Вы не можете удалять свои сообщения
Вы не можете голосовать в опросах
Вы не можете прикреплять файлы к сообщениям
Вы не можете скачивать файлы

!ВНИМАНИЕ!
Сайт не предоставляет электронные версии произведений, а занимается лишь коллекционированием и каталогизацией ссылок, присылаемых и публикуемых на форуме нашими читателями. Если вы являетесь правообладателем какого-либо представленного материала и не желаете, чтобы ссылка на него находилась в нашем каталоге, свяжитесь с нами, и мы незамедлительно удалим ее. Файлы для обмена на трекере предоставлены пользователями сайта, и администрация не несет ответственности за их содержание. Просьба не заливать файлы, защищенные авторскими правами, а также файлы нелегального содержания!