***Уважаемые пользователи и гости !!! Сайт переехал на новый домен Torrents-club.info. Просьба изменить ваши закладки! ***
 
[ Сегодня идет свободное скачивание без начисления Download ]


Статистика раздачи
Нет
 
   
 
 
 
Информация о фильме
Название: Это всё он
Оригинальное название: He's All That
Год выпуска: 2021
Жанр: Мелодрама, комедия
Выпущено: США, Miramax Films, Netflix, Offspring Entertainment
Режиссер: Марк Уотерс
В ролях: Эддисон Рэй, Тэннер Бьюкэнэн, Энни Джейкоб, Мэдисон Петтис, Рэйчел Ли Кук, Мэттью Лиллард, Пейтон Мейер, Изабелла Крамп, Эндрю Каллахан, Мира Моллой
О фильме: Он - все, что переосмысливает оригинальный сюжет подростковой классики 1999 года, Она - все Это. Современная история следует за влиятельным человеком, который принимает вызов, чтобы превратить самого большого неудачника школы в короля выпускного бала. Современный ремейк молодежной комедии «Это всё она» 1999 года.

Качество: WEB-DLRip (AVC)
Видео: MPEG-4 AVC, 2498 Kбит/с, 1024x554, 24 кадр/с
Аудио: Pусский (AC3, 6 ch, 448 Кбит/с)
Размер: 1.89 ГБ
Продолжительность: 01:31:45
Перевод: Дублированный
Субтитры: Русские
Озвучивание: Дублированное (Netflix)

x264

x264 [info]: frame I:1828 Avg QP:14.29 size: 97093
x264 [info]: frame P:30800 Avg QP:19.08 size: 28502
x264 [info]: frame B:99502 Avg QP:22.70 size: 6625
x264 [info]: consecutive B-frames: 3.0% 4.0% 13.6% 20.9% 14.8% 38.4% 1.1% 0.4% 0.7% 0.9% 2.1%
x264 [info]: mb I I16..4: 10.5% 58.9% 30.6%
x264 [info]: mb P I16..4: 1.5% 10.5% 2.3% P16..4: 28.1% 31.0% 12.9% 3.2% 0.6% skip:10.0%
x264 [info]: mb B I16..4: 0.2% 1.1% 0.2% B16..8: 30.3% 16.7% 3.3% direct: 3.3% skip:45.0% L0:38.5% L1:45.9% BI:15.5%
x264 [info]: 8x8 transform intra:69.7% inter:55.6%
x264 [info]: direct mvs spatial:96.2% temporal:3.8%
x264 [info]: coded y,uvDC,uvAC intra: 79.4% 84.9% 63.7% inter: 16.3% 15.9% 8.6%
x264 [info]: i16 v,h,dc,p: 24% 18% 4% 54%
x264 [info]: i8 v,h,dc,ddl,ddr,vr,hd,vl,hu: 15% 10% 6% 8% 11% 13% 11% 13% 13%
x264 [info]: i4 v,h,dc,ddl,ddr,vr,hd,vl,hu: 17% 11% 6% 8% 13% 13% 11% 11% 11%
x264 [info]: i8c dc,h,v,p: 33% 25% 22% 20%
x264 [info]: Weighted P-Frames: Y:2.6% UV:1.1%
x264 [info]: ref P L0: 58.0% 12.5% 14.0% 5.2% 3.2% 2.6% 1.8% 1.3% 1.1% 0.2% 0.0%
x264 [info]: ref B L0: 86.1% 7.1% 3.5% 1.2% 1.0% 0.6% 0.4% 0.1%
x264 [info]: ref B L1: 95.0% 5.0%
x264 [info]: kb/s:2491.50

Инфо-файл

Общее
Уникальный идентификатор : 199744277824287651789087145014030937616 (0x9645593D133066DCB0D8C3373C56AE10)
Полное имя : D:ЗагрузкиHes.All.That.2021.x264.WEB-DLRip.(AVC).OlLanDGroup.mkv
Формат : Matroska
Версия формата : Version 4 / Version 2
Размер файла : 1,89 Гбайт
Продолжительность : 1 ч. 31 м.
Общий поток : 2940 Кбит/сек
Название фильма : He's All That.2021.Rip by: ollan
Дата кодирования : UTC 2021-09-08 18:25:58
Программа кодирования : mkvmerge v6.5.0 ('Isn't she lovely') built on Oct 20 2013 12:50:05
Библиотека кодирования : libebml v1.3.0 + libmatroska v1.4.1
Обложка : Yes
Attachments : Cover - He's.All.That.png
Видео
Идентификатор : 1
Формат : AVC
Формат/Информация : Advanced Video Codec
Профиль формата : High@L4.1
Настройки формата : CABAC / 9 Ref Frames
Параметр CABAC формата : Да
Параметр ReFrames формата : 9 кадров
Идентификатор кодека : V_MPEG4/ISO/AVC
Продолжительность : 1 ч. 31 м.
Битрейт : 2498 Кбит/сек
Ширина : 1024 пикселя
Высота : 554 пикселя
Соотношение сторон : 1,85:1
Режим частоты кадров : Постоянный
Частота кадров : 24,000 кадра/сек
Цветовое пространство : YUV
Субдискретизация насыщенности : 4:2:0
Битовая глубина : 8 бит
Тип развёртки : Прогрессивная
Бит/(Пиксели*Кадры) : 0.183
Размер потока : 1,56 Гбайт (83%)
Библиотека кодирования : x264 core 146 r2538 121396c
Настройки программы : cabac=1 / ref=9 / deblock=1:-3:-3 / analyse=0x3:0x133 / me=umh / subme=11 / psy=1 / psy_rd=0.95:0.05 / mixed_ref=1 / me_range=64 / chroma_me=1 / trellis=2 / 8x8dct=1 / cqm=0 / deadzone=21,11 / fast_pskip=0 / chroma_qp_offset=-3 / threads=12 / lookahead_threads=3 / sliced_threads=0 / nr=0 / decimate=0 / interlaced=0 / bluray_compat=0 / constrained_intra=0 / bframes=10 / b_pyramid=2 / b_adapt=2 / b_bias=0 / direct=3 / weightb=1 / open_gop=0 / weightp=2 / keyint=240 / keyint_min=23 / scenecut=40 / intra_refresh=0 / rc_lookahead=40 / rc=2pass / mbtree=1 / bitrate=2498 / ratetol=1.0 / qcomp=0.60 / qpmin=0 / qpmax=69 / qpstep=4 / cplxblur=20.0 / qblur=0.5 / vbv_maxrate=50000 / vbv_bufsize=62500 / nal_hrd=none / filler=0 / ip_ratio=1.40 / aq=1:1.00
Язык : English
Default : Да
Forced : Нет
Аудио
Идентификатор : 2
Формат : AC-3
Формат/Информация : Audio Coding 3
Идентификатор кодека : A_AC3
Продолжительность : 1 ч. 31 м.
Вид битрейта : Постоянный
Битрейт : 448 Кбит/сек
Каналы : 6 каналов
Расположение каналов : Front: L C R, Side: L R, LFE
Частота : 48,0 КГц
Частота кадров : 31,250 кадров/сек (1536 SPF)
Битовая глубина : 16 бит
Метод сжатия : С потерями
Размер потока : 294 Мбайт (15%)
Заголовок : Дублированный (Netflix)
Язык : Russian
Service kind : Complete Main
Default : Да
Forced : Нет
Текст #1
Идентификатор : 3
Формат : UTF-8
Идентификатор кодека : S_TEXT/UTF8
Идентификатор кодека/Информация : UTF-8 Plain Text
Заголовок : Forced
Язык : Russian
Default : Да
Forced : Нет
Текст #2
Идентификатор : 4
Формат : UTF-8
Идентификатор кодека : S_TEXT/UTF8
Идентификатор кодека/Информация : UTF-8 Plain Text
Заголовок : Full
Язык : Russian
Default : Нет
Forced : Нет

Скриншоты



Релиз от: Rip by:

[Цитировать]



Показать сообщения:    

Текущее время: 20-Сен 03:03

Часовой пояс: UTC + 6


Вы не можете начинать темы
Вы не можете отвечать на сообщения
Вы не можете редактировать свои сообщения
Вы не можете удалять свои сообщения
Вы не можете голосовать в опросах
Вы не можете прикреплять файлы к сообщениям
Вы не можете скачивать файлы

!ВНИМАНИЕ!
Сайт не предоставляет электронные версии произведений, а занимается лишь коллекционированием и каталогизацией ссылок, присылаемых и публикуемых на форуме нашими читателями. Если вы являетесь правообладателем какого-либо представленного материала и не желаете, чтобы ссылка на него находилась в нашем каталоге, свяжитесь с нами, и мы незамедлительно удалим ее. Файлы для обмена на трекере предоставлены пользователями сайта, и администрация не несет ответственности за их содержание. Просьба не заливать файлы, защищенные авторскими правами, а также файлы нелегального содержания!