***Уважаемые пользователи и гости !!! Сайт переехал на новый домен Torrents-club.info. Просьба изменить ваши закладки! ***
 
[ Сегодня идет свободное скачивание без начисления Download ]


Статистика раздачи
Нет
 
   
 
 
 
Мечта Робина / Robin's WishГод выпуска: 2020
Выпущено: США, Quotable Pictures
Жанр: документальный, биография
Продолжительность: 01:16:20
Перевод: Профессиональный многоголосый (SDI Media)
Режиссер: Тайлор Норвуд
В ролях: Робин Уильямс, Сьюзан Шнайдер, Брюс Миллер, Уолтер Корошец, Майк Маллен, Картер Хэм, Илэйн Роджерс, Чад Нордвалл, Тони Том, Джонни Стил, Джон Р. Монтгомери, Шон Леви, Дэвид Э. Келли, Glenn Davis, Морт Саль
О фильме: В августе 2014 года мир был потрясен, узнав, что Робин Уильямс, любимый актер, принесший человечеству столько радости и юмора, покончил с собой. СМИ называли разные причины, одна нелепее другой, оставив большинство поклонников его таланта в неведении. Это история о том, что на самом деле произошло с артистом, с чем боролся его разум, чего желало его сердце.

Качество: WEB-DL 1080p | Robins.Wish.2020.1080p.WEB-DL.DD5.1.H.264-AR
Видео: MPEG-4 AVC, 5184 Kбит/с, 1912x1072
Аудио 1: AC3, 6 ch, 448 Кбит/с |[img]https://clck.ru/WwFwB[/img]
Аудио 2: AC3, 6 ch, 384 Кбит/с |[img]https://clck.ru/WwFyo[/img]
Субтитры: Нет.

Скриншоты

Инфо

Общее
Уникальный идентификатор : 123212845441811668207917830816046889463 (0x5CB1EE4CA42F4CADBB6C32BEE0BDB9F7)
Полное имя : E:TorrentsRobins.Wish.2020.1080p.WEB-DL_.mkv
Формат : Matroska
Версия формата : Version 4
Размер файла : 3,21 Гбайт
Продолжительность : 1 ч. 16 м.
Общий поток : 6 018 Кбит/сек
Название фильма : Robins.Wish.2020.1080p.WEB-DL_
Дата кодирования : UTC 2021-09-09 06:21:03
Программа кодирования : mkvmerge v59.0.0 ('Shining Star') 64-bit
Библиотека кодирования : libebml v1.4.2 + libmatroska v1.6.4
Видео
Идентификатор : 1
Формат : AVC
Формат/Информация : Advanced Video Codec
Профиль формата : High@L4
Настройки формата : CABAC / 4 Ref Frames
Параметр CABAC формата : Да
Параметр RefFrames формата : 4 кадра
Идентификатор кодека : V_MPEG4/ISO/AVC
Продолжительность : 1 ч. 16 м.
Битрейт : 5 184 Кбит/сек
Ширина : 1 912 пикселей
Высота : 1 072 пикселя
Соотношение сторон : 16:9
Режим частоты кадров : Постоянный
Частота кадров : 23,976 (24000/1001) кадра/сек
Цветовое пространство : YUV
Субдискретизация насыщенности : 4:2:0
Битовая глубина : 8 бит
Тип развёртки : Прогрессивная
Бит/(Пиксели*Кадры) : 0.105
Размер потока : 2,76 Гбайт (86%)
Default : Да
Forced : Нет
Цветовой диапазон : Limited
Основные цвета : BT.709
Характеристики трансфера : BT.709
Коэффициенты матрицы : BT.709
Аудио #1
Идентификатор : 2
Формат : AC-3
Формат/Информация : Audio Coding 3
Коммерческое название : Dolby Digital
Идентификатор кодека : A_AC3
Продолжительность : 1 ч. 16 м.
Вид битрейта : Постоянный
Битрейт : 448 Кбит/сек
Каналы : 6 каналов
Channel layout : L R C LFE Ls Rs
Частота : 48,0 КГц
Частота кадров : 31,250 кадров/сек (1536 SPF)
Метод сжатия : С потерями
Размер потока : 245 Мбайт (7%)
Заголовок : [MVO] SDI Media
Язык : Russian
Service kind : Complete Main
Default : Да
Forced : Нет
Аудио #2
Идентификатор : 3
Формат : AC-3
Формат/Информация : Audio Coding 3
Коммерческое название : Dolby Digital
Идентификатор кодека : A_AC3
Продолжительность : 1 ч. 16 м.
Вид битрейта : Постоянный
Битрейт : 384 Кбит/сек
Каналы : 6 каналов
Channel layout : L R C LFE Ls Rs
Частота : 48,0 КГц
Частота кадров : 31,250 кадров/сек (1536 SPF)
Метод сжатия : С потерями
Размер потока : 210 Мбайт (6%)
Язык : English
Service kind : Complete Main
Default : Нет
Forced : Нет

[Цитировать]



Показать сообщения:    

Текущее время: 20-Сен 02:10

Часовой пояс: UTC + 6


Вы не можете начинать темы
Вы не можете отвечать на сообщения
Вы не можете редактировать свои сообщения
Вы не можете удалять свои сообщения
Вы не можете голосовать в опросах
Вы не можете прикреплять файлы к сообщениям
Вы не можете скачивать файлы

!ВНИМАНИЕ!
Сайт не предоставляет электронные версии произведений, а занимается лишь коллекционированием и каталогизацией ссылок, присылаемых и публикуемых на форуме нашими читателями. Если вы являетесь правообладателем какого-либо представленного материала и не желаете, чтобы ссылка на него находилась в нашем каталоге, свяжитесь с нами, и мы незамедлительно удалим ее. Файлы для обмена на трекере предоставлены пользователями сайта, и администрация не несет ответственности за их содержание. Просьба не заливать файлы, защищенные авторскими правами, а также файлы нелегального содержания!