***Уважаемые пользователи и гости !!! Сайт переехал на новый домен Torrents-club.info. Просьба изменить ваши закладки! ***
 
[ Сегодня идет свободное скачивание без начисления Download ]


Статистика раздачи
Нет
 
   
 
 
 
 
Форсаж 9 / F9 (2021) [4K, HEVC, HDR / BDRip] (2160p) Год выпуска: 2021
Жанр: Боевик, триллер, криминал, приключения
Выпущено: США, Таиланд, Канада, One Race Films, Roth/Kirschenbaum Films, Perfect Storm Entertainment
Режиссер: Джастин Лин
Продолжительность: 02:22:52
Перевод: Дублированный
Субтитры: Русские, английские, украинские
Возраст 12+

В ролях:
Вин Дизель, Джон Сина, Тайриз Гибсон, Лудакрис, Джордана Брюстер, Натали Эммануэль, Мишель Родригес, Хелен Миррен, Шарлиз Терон, Майкл Рукер

О фильме:
Доминик Торетто ведет спокойную жизнь вместе с Летти и своим сыном Брайаном, однако, они знают, что новая опасность всегда где-то рядом. В этот раз Доминику придется встретиться с призраками прошлого, если он хочет спасти самых близких. Команда снова собирается вместе, чтобы предотвратить дерзкий план по захвату мира, который придумал самый опасный преступник и безбашенный водитель из всех, с кем они сталкивались ранее. Ситуация усложняется тем, что этот человек — брат Доминика Джейкоб, которого много лет назад изгнали из семьи
Форсаж 9
Техданные
Качество: BDRip (2160p)
Видео: MPEG-H HEVC, 21.4 Мбит/с, 3840x1608, 23.976 кадр/с, 10 бит
Аудио: Русский (AC3, 6 ch, 384 Кбит/с), украинский (AC3, 6 ch, 384 Кбит/с), английский (AC3, 6 ch, 640 Кбит/с)

Релиз

Театральная версия
Мастер 5
Видеоряд от SNOW
Видео: MPEG-H HEVC Video / 21,4 Mbps / 3840x1608 / 23,976 fps / 16:9 / Main 10@L5@Main / 4:2:0 / 10 bits / 1000nits / HDR10 / BT.2020
Аудио 1: AC3, 6 ch, 384 kbps - Русский (DUB, iTunes)
Аудио 2: AC3, 6 ch, 384 kbps - Украинский (DUB)
Аудио 3: AC3, 6 ch, 640 kbps - Английский
Субтитры: Русские (Forced, Full), Украинские (Forced), Английские (Full, SDH)
Без рекламы!

MediaInfo:

Общее
Уникальный идентификатор                 : 247502140779979459401550201241153940070 (0xBA332DAD1E09199AAD9C7A882579AA66)
Полное имя                               : G:\F9.The.Fast.Saga.2021.2160p.BDRip.HDR.x265.Master5.mkv
Формат                                   : Matroska
Версия формата                           : Version 4
Размер файла                             : 22,8 Гбайт
Продолжительность                        : 2 ч. 22 м.
Общий поток                              : 22,8 Мбит/сек
Название фильма                          : F9: The Fast Saga (2021)
Дата кодирования                         : UTC 2021-09-13 16:01:07
Программа кодирования                    : mkvmerge v7.9.0 ('Birds') 64bit
Библиотека кодирования                   : libebml v1.3.1 + libmatroska v1.4.2
Видео
Идентификатор                            : 1
Формат                                   : HEVC
Формат/Информация                        : High Efficiency Video Coding
Коммерческое название                    : HDR10
Профиль формата                          : Main 10@L5.1@High
Идентификатор кодека                     : V_MPEGH/ISO/HEVC
Продолжительность                        : 2 ч. 22 м.
Битрейт                                  : 21,4 Мбит/сек
Ширина                                   : 3840 пикселей
Высота                                   : 1608 пикселей
Соотношение сторон                       : 2,40:1
Режим частоты кадров                     : Постоянный
Частота кадров                           : 23,976 (24000/1001) кадра/сек
Цветовое пространство                    : YUV
Субдискретизация насыщенности            : 4:2:0 (Type 2)
Битовая глубина                          : 10 бит
Бит/(Пиксели*Кадры)                      : 0.145
Размер потока                            : 21,4 Гбайт (94%)
Библиотека кодирования                   : x265 3.5+13-4c6880de4:[Windows][GCC 11.2.0][64 bit] 10bit
Настройки программы                      : cpuid=1111039 / frame-threads=4 / numa-pools=16 / wpp / no-pmode / no-pme / no-psnr / no-ssim / log-level=2 / input-csp=1 / input-res=3840x1608 / interlace=0 / total-frames=205529 / level-idc=51 / high-tier=1 / uhd-bd=0 / ref=4 / no-allow-non-conformance / repeat-headers / annexb / aud / no-eob / no-eos / hrd / info / hash=0 / no-temporal-layers / no-open-gop / min-keyint=23 / keyint=250 / gop-lookahead=0 / bframes=4 / b-adapt=2 / b-pyramid / bframe-bias=0 / rc-lookahead=25 / lookahead-slices=4 / scenecut=40 / no-hist-scenecut / radl=0 / no-splice / no-intra-refresh / ctu=64 / min-cu-size=8 / rect / no-amp / max-tu-size=32 / tu-inter-depth=1 / tu-intra-depth=1 / limit-tu=0 / rdoq-level=2 / dynamic-rd=0.00 / no-ssim-rd / signhide / no-tskip / nr-intra=0 / nr-inter=0 / no-constrained-intra / no-strong-intra-smoothing / max-merge=3 / limit-refs=3 / limit-modes / me=3 / subme=3 / merange=57 / temporal-mvp / no-frame-dup / no-hme / weightp / no-weightb / no-analyze-src-pics / deblock=-3:-3 / no-sao / no-sao-non-deblock / rd=4 / selective-sao=0 / no-early-skip / rskip / no-fast-intra / no-tskip-fast / no-cu-lossless / no-b-intra / no-splitrd-skip / rdpenalty=0 / psy-rd=2.00 / psy-rdoq=1.00 / no-rd-refine / no-lossless / cbqpoffs=0 / crqpoffs=0 / rc=crf / crf=15.0 / qcomp=0.60 / qpstep=4 / stats-write=0 / stats-read=0 / vbv-maxrate=160000 / vbv-bufsize=160000 / vbv-init=0.9 / min-vbv-fullness=50.0 / max-vbv-fullness=80.0 / crf-max=0.0 / crf-min=0.0 / ipratio=1.40 / pbratio=1.30 / aq-mode=2 / aq-strength=1.00 / cutree / zone-count=0 / no-strict-cbr / qg-size=32 / no-rc-grain / qpmax=69 / qpmin=0 / no-const-vbv / sar=1 / overscan=0 / videoformat=5 / range=0 / colorprim=9 / transfer=16 / colormatrix=9 / chromaloc=1 / chromaloc-top=2 / chromaloc-bottom=2 / display-window=0 / master-display=G(13250,34500)B(7500,3000)R(34000,16000)WP(15635,16450)L(10000000,1) / cll=1000,696 / min-luma=0 / max-luma=1023 / log2-max-poc-lsb=8 / vui-timing-info / vui-hrd-info / slices=1 / no-opt-qp-pps / no-opt-ref-list-length-pps / no-multi-pass-opt-rps / scenecut-bias=0.05 / hist-threshold=0.03 / no-opt-cu-delta-qp / no-aq-motion / hdr10 / hdr10-opt / no-dhdr10-opt / no-idr-recovery-sei / analysis-reuse-level=0 / analysis-save-reuse-level=0 / analysis-load-reuse-level=0 / scale-factor=0 / refine-intra=0 / refine-inter=0 / refine-mv=1 / refine-ctu-distortion=0 / no-limit-sao / ctu-info=0 / no-lowpass-dct / refine-analysis-type=0 / copy-pic=1 / max-ausize-factor=1.0 / no-dynamic-refine / no-single-sei / no-hevc-aq / no-svt / no-field / qp-adaptation-range=1.00 / scenecut-aware-qp=0conformance-window-offsets / right=0 / bottom=0 / decoder-max-rate=0 / no-vbv-live-multi-pass
Язык                                     : English
Default                                  : Да
Forced                                   : Нет
Цветовой диапазон                        : Limited
Основные цвета                           : BT.2020
Характеристики трансфера                 : PQ
Коэффициенты матрицы                     : BT.2020 non-constant
MasteringDisplay_ColorPrimaries          : Display P3
MasteringDisplay_Luminance               : min: 0.0001 cd/m2, max: 1000 cd/m2
MaxCLL                                   : 1000 cd/m2
MaxFALL                                  : 696 cd/m2
Аудио #1
Идентификатор                            : 2
Формат                                   : AC-3
Формат/Информация                        : Audio Coding 3
Коммерческое название                    : Dolby Digital
Идентификатор кодека                     : A_AC3
Продолжительность                        : 2 ч. 22 м.
Вид битрейта                             : Постоянный
Битрейт                                  : 384 Кбит/сек
Каналы                                   : 6 каналов
Channel layout                           : L R C LFE Ls Rs
Частота                                  : 48,0 КГц
Частота кадров                           : 31,250 кадров/сек (1536 SPF)
Битовая глубина                          : 16 бит
Метод сжатия                             : С потерями
Размер потока                            : 392 Мбайт (2%)
Заголовок                                : iTunes
Язык                                     : Russian
ServiceKind/String                       : Complete Main
Default                                  : Да
Forced                                   : Да
Аудио #2
Идентификатор                            : 3
Формат                                   : AC-3
Формат/Информация                        : Audio Coding 3
Коммерческое название                    : Dolby Digital
Идентификатор кодека                     : A_AC3
Продолжительность                        : 2 ч. 22 м.
Вид битрейта                             : Постоянный
Битрейт                                  : 384 Кбит/сек
Каналы                                   : 6 каналов
Channel layout                           : L R C LFE Ls Rs
Частота                                  : 48,0 КГц
Частота кадров                           : 31,250 кадров/сек (1536 SPF)
Битовая глубина                          : 16 бит
Метод сжатия                             : С потерями
Размер потока                            : 392 Мбайт (2%)
Заголовок                                : Dub
Язык                                     : Ukrainian
ServiceKind/String                       : Complete Main
Default                                  : Нет
Forced                                   : Нет
Аудио #3
Идентификатор                            : 4
Формат                                   : AC-3
Формат/Информация                        : Audio Coding 3
Коммерческое название                    : Dolby Digital
Идентификатор кодека                     : A_AC3
Продолжительность                        : 2 ч. 22 м.
Вид битрейта                             : Постоянный
Битрейт                                  : 640 Кбит/сек
Каналы                                   : 6 каналов
Channel layout                           : L R C LFE Ls Rs
Частота                                  : 48,0 КГц
Частота кадров                           : 31,250 кадров/сек (1536 SPF)
Битовая глубина                          : 16 бит
Метод сжатия                             : С потерями
Размер потока                            : 654 Мбайт (3%)
Язык                                     : English
ServiceKind/String                       : Complete Main
Default                                  : Нет
Forced                                   : Нет
Текст #1
Идентификатор                            : 5
Формат                                   : UTF-8
Идентификатор кодека                     : S_TEXT/UTF8
Идентификатор кодека/Информация          : UTF-8 Plain Text
Продолжительность                        : 2 ч. 12 м.
Битрейт                                  : 55 бит/сек
ElementCount                             : 1419
Размер потока                            : 53,2 Кбайт (0%)
Заголовок                                : Full
Язык                                     : Russian
Default                                  : Нет
Forced                                   : Нет
Текст #2
Идентификатор                            : 6
Формат                                   : UTF-8
Идентификатор кодека                     : S_TEXT/UTF8
Идентификатор кодека/Информация          : UTF-8 Plain Text
Продолжительность                        : 2 ч. 9 м.
Битрейт                                  : 1 бит/сек
ElementCount                             : 40
Размер потока                            : 1,41 Кбайт (0%)
Заголовок                                : Forced
Язык                                     : Ukrainian
Default                                  : Нет
Forced                                   : Нет
Текст #3
Идентификатор                            : 7
Формат                                   : UTF-8
Идентификатор кодека                     : S_TEXT/UTF8
Идентификатор кодека/Информация          : UTF-8 Plain Text
Продолжительность                        : 2 ч. 15 м.
Битрейт                                  : 47 бит/сек
ElementCount                             : 1557
Размер потока                            : 47,2 Кбайт (0%)
Заголовок                                : Full
Язык                                     : English
Default                                  : Да
Forced                                   : Нет
Меню
00:00:00.000                             : :Глава 01
00:04:47.746                             : :Глава 02
00:11:11.212                             : :Глава 03
00:20:36.569                             : :Глава 04
00:25:26.567                             : :Глава 05
00:30:26.867                             : :Глава 06
00:34:20.016                             : :Глава 07
00:42:13.489                             : :Глава 08
00:49:39.768                             : :Глава 09
00:55:46.343                             : :Глава 10
00:59:57.969                             : :Глава 11
01:07:58.866                             : :Глава 12
01:19:29.515                             : :Глава 13
01:28:47.113                             : :Глава 14
01:34:53.438                             : :Глава 15
01:40:27.688                             : :Глава 16
01:50:56.858                             : :Глава 17
02:01:02.880                             : :Глава 18
02:05:22.265                             : :Глава 19
02:10:17.726                             : :Глава 20

Скриншоты

[Цитировать]



Показать сообщения:    

Текущее время: 20-Сен 02:47

Часовой пояс: UTC + 6


Вы не можете начинать темы
Вы не можете отвечать на сообщения
Вы не можете редактировать свои сообщения
Вы не можете удалять свои сообщения
Вы не можете голосовать в опросах
Вы не можете прикреплять файлы к сообщениям
Вы не можете скачивать файлы

!ВНИМАНИЕ!
Сайт не предоставляет электронные версии произведений, а занимается лишь коллекционированием и каталогизацией ссылок, присылаемых и публикуемых на форуме нашими читателями. Если вы являетесь правообладателем какого-либо представленного материала и не желаете, чтобы ссылка на него находилась в нашем каталоге, свяжитесь с нами, и мы незамедлительно удалим ее. Файлы для обмена на трекере предоставлены пользователями сайта, и администрация не несет ответственности за их содержание. Просьба не заливать файлы, защищенные авторскими правами, а также файлы нелегального содержания!