***Уважаемые пользователи и гости !!! Сайт переехал на новый домен Torrents-club.info. Просьба изменить ваши закладки! ***
 
[ Сегодня идет свободное скачивание без начисления Download ]


Статистика раздачи
Нет
 
   
 
 
 
 
Круэлла / Cruella (2021) [4K, HEVC, HDR, Dolby Vision / HybridRip] (2160p) Год выпуска: 2021
Жанр: Комедия, криминал
Выпущено: США, Великобритания, Gunn Films, Marc Platt Productions, TSG Entertainment
Продолжительность: 02:17:15
Перевод: Дублированный, профессиональный многоголосый, любительский двухголосый
Субтитры: Русские, английские, украинские
Возраст 12+

В ролях
: Эмма Стоун, Эмма Томпсон, Джоэль Фрай, Пол Уолтер Хаузер, Джон Маккри, Эмили Бичем, Марк Стронг, Кайван Новак, Кирби Хауэлл-Баптист, Джэми Деметриу

О фильме:
Лондон 70-х годов охвачен зарождающейся культурой панк-рока. Невероятно одаренная мошенница по имени Эстелла решает сделать себе имя в мире моды. Её лучшие друзья — парочка юных карманников, которые ценят страсть Эстеллы к приключениям и надеются вместе с ней отвоевать себе место под солнцем на улицах британской столицы. В один прекрасный день модное чутье Эстеллы привлекает внимание шикарной и пугающе высокомерной баронессы фон Хельман.
Круэлла
Техданные
Качество: HybridRip (2160p)
Видео: MPEG-H HEVC, 23 Mбит/с, 3840x2160
Аудио: Русский (AC3, 6 ch, 640 Кбит/с), (AC3, 6 ch, 448 Кбит/с), украинский (AC3, 6 ch, 384 Кбит/с), английский (EAC3, 8 ch, 1536 Кбит/с)

Релиз

Релиз от Dolby Vision Torrents
Релиз в формате Dolby Vision в контейнере MKV(Profile 8) для совместимости со всеми поддерживаемыми DV устройствами: nVidia Shield Pro 2019, Zidoo/Dune на SOC Realtek RTD1619DR, Ugoos AM6 Plus, Sony XG/XH. Не подтверждено ТВ Philips на Android TV.
Плееры Android TV с поддержкой Dolby Vision: ExoPlayer, ViMu Media Player for TV 8.8.8 и выше, Plex, Just Player, Emby. Kodi на текущий момент проигрывает Dolby Vision только специальной сборкой, доступной на форуме разработчика.
Аудио #1 Русский: AC3, 48.0 kHz, 5.1 ch, 640 Kbps [Дублированный]
Аудио #2 Русский: AC3, 48.0 kHz, 5.1 ch, 448 Kbps [DVO, Pazzl Voice]
Аудио #3 Русский: AC3, 48.0 kHz, 5.1 ch, 448 Kbps [MVO, HDRezka Studio]
Аудио #4 Украинский: AC3, 48.0 kHz, 5.1 ch, 384 Kbps [MVO, HDRezka Studio]
Аудио #5 English: EAC3, 48.0 kHz, 7.1 ch, 1536 Kbps [Original]
Субтитры: Русские (форс., полные: FOCS, PhysKids), украинские (форс.) , английские (полные, SDH)
Гибридный релиз получен слиянием UHD BDRip HDR + Web-DL 2160p Dolby Vision RPU

MediaInfo:

Общее
Уникальный идентификатор                 : 162168240439081700046671951327784114764 (0x7A00778F36C6463938836F6EC1649A4C)
Полное имя                               : \\Slid-NAS\Films\Cruella.2021.2160p.UHD.BDRip.HDR.DV.x265.DD+7.1-DVT.mkv
Формат                                   : Matroska
Версия формата                           : Version 4 / Version 2
Размер файла                             : 24,7 Гбайт
Продолжительность                        : 2 ч. 17 м.
Общий поток                              : 25,8 Мбит/сек
Название фильма                          : Cruella (2021) - Release by Dolby Vision Torrents
Дата кодирования                         : UTC 2021-09-10 16:03:46
Программа кодирования                    : mkvmerge v60.0.0 ('Are We Copies?') 64-bit
Библиотека кодирования                   : libebml v1.4.2 + libmatroska v1.6.4
Обложка                                  : Yes
Attachments                              : Cover.jpg
IMDB                                     : tt3228774
TMDB                                     : movie/337404
Видео
Идентификатор                            : 1
Формат                                   : HEVC
Формат/Информация                        : High Efficiency Video Coding
Профиль формата                          : Main 10@L5.1@High
HDR format                               : Dolby Vision, Version 1.0, dvhe.08.06, BL+RPU, HDR10 compatible / SMPTE ST 2086, HDR10 compatible
Идентификатор кодека                     : V_MPEGH/ISO/HEVC
Продолжительность                        : 2 ч. 13 м.
Битрейт                                  : 23,0 Мбит/сек
Ширина                                   : 3 840 пикселей
Высота                                   : 2 076 пикселей
Соотношение сторон                       : 1,85:1
Режим частоты кадров                     : Постоянный
Частота кадров                           : 23,976 (24000/1001) кадра/сек
Цветовое пространство                    : YUV
Субдискретизация насыщенности            : 4:2:0 (Type 2)
Битовая глубина                          : 10 бит
Бит/(Пиксели*Кадры)                      : 0.120
Размер потока                            : 21,5 Гбайт (87%)
Заголовок                                : Rip by VoX
Библиотека кодирования                   : x265 3.5+12+14-106329cbd:[Windows][GCC 10.3.0][64 bit] 10bit
Настройки программы                      : cpuid=1111039 / frame-threads=4 / numa-pools=16 / wpp / no-pmode / no-pme / no-psnr / no-ssim / log-level=2 / input-csp=1 / input-res=3840x2076 / interlace=0 / total-frames=192664 / level-idc=51 / high-tier=1 / uhd-bd=0 / ref=4 / no-allow-non-conformance / repeat-headers / annexb / aud / no-eob / no-eos / hrd / info / hash=0 / no-temporal-layers / no-open-gop / min-keyint=23 / keyint=240 / gop-lookahead=0 / bframes=10 / b-adapt=2 / b-pyramid / bframe-bias=0 / rc-lookahead=60 / lookahead-slices=1 / scenecut=40 / no-hist-scenecut / radl=0 / no-splice / no-intra-refresh / ctu=64 / min-cu-size=8 / no-rect / no-amp / max-tu-size=32 / tu-inter-depth=4 / tu-intra-depth=4 / limit-tu=4 / rdoq-level=2 / dynamic-rd=0.00 / no-ssim-rd / signhide / no-tskip / nr-intra=0 / nr-inter=0 / no-constrained-intra / strong-intra-smoothing / max-merge=4 / limit-refs=1 / limit-modes / me=3 / subme=5 / merange=57 / temporal-mvp / no-frame-dup / no-hme / weightp / weightb / no-analyze-src-pics / deblock=-3:-3 / no-sao / no-sao-non-deblock / rd=4 / selective-sao=0 / no-early-skip / rskip / no-fast-intra / no-tskip-fast / no-cu-lossless / b-intra / no-splitrd-skip / rdpenalty=0 / psy-rd=2.00 / psy-rdoq=1.90 / no-rd-refine / no-lossless / cbqpoffs=-2 / crqpoffs=-2 / rc=crf / crf=20.0 / qcomp=0.60 / qpstep=4 / stats-write=0 / stats-read=0 / vbv-maxrate=160000 / vbv-bufsize=160000 / vbv-init=0.9 / min-vbv-fullness=50.0 / max-vbv-fullness=80.0 / crf-max=0.0 / crf-min=0.0 / ipratio=1.30 / pbratio=1.20 / aq-mode=3 / aq-strength=0.90 / no-cutree / zone-count=0 / no-strict-cbr / qg-size=32 / no-rc-grain / qpmax=69 / qpmin=0 / no-const-vbv / sar=1 / overscan=0 / videoformat=5 / range=0 / colorprim=9 / transfer=16 / colormatrix=9 / chromaloc=1 / chromaloc-top=2 / chromaloc-bottom=2 / display-window=0 / master-display=G(13250,34500)B(7500,3000)R(34000,16000)WP(15635,16450)L(10000000,0) / cll=0,0 / min-luma=0 / max-luma=1023 / log2-max-poc-lsb=8 / vui-timing-info / vui-hrd-info / slices=1 / no-opt-qp-pps / no-opt-ref-list-length-pps / no-multi-pass-opt-rps / scenecut-bias=0.05 / hist-threshold=0.01 / no-opt-cu-delta-qp / no-aq-motion / hdr10 / hdr10-opt / no-dhdr10-opt / no-idr-recovery-sei / analysis-reuse-level=0 / analysis-save-reuse-level=0 / analysis-load-reuse-level=0 / scale-factor=0 / refine-intra=0 / refine-inter=0 / refine-mv=0 / refine-ctu-distortion=0 / no-limit-sao / ctu-info=0 / no-lowpass-dct / refine-analysis-type=0 / copy-pic=1 / max-ausize-factor=1.0 / no-dynamic-refine / no-single-sei / no-hevc-aq / no-svt / no-field / qp-adaptation-range=1.00 / scenecut-aware-qp=0 / conformance-window-right-offset=0 / conformance-window-bottom-offset=0 / decoder-max-rate=0 / no-vbv-live-multi-pass
Язык                                     : English
Default                                  : Да
Forced                                   : Нет
Цветовой диапазон                        : Limited
Основные цвета                           : BT.2020
Характеристики трансфера                 : PQ
Коэффициенты матрицы                     : BT.2020 non-constant
Mastering display color primaries        : Display P3
Mastering display luminance              : min: 0.0000 cd/m2, max: 1000 cd/m2
Аудио #1
Идентификатор                            : 2
Формат                                   : AC-3
Формат/Информация                        : Audio Coding 3
Коммерческое название                    : Dolby Digital
Идентификатор кодека                     : A_AC3
Продолжительность                        : 2 ч. 13 м.
Вид битрейта                             : Постоянный
Битрейт                                  : 640 Кбит/сек
Каналы                                   : 6 каналов
Channel layout                           : L R C LFE Ls Rs
Частота                                  : 48,0 КГц
Частота кадров                           : 31,250 кадров/сек (1536 SPF)
Метод сжатия                             : С потерями
Размер потока                            : 613 Мбайт (2%)
Заголовок                                : Dub
Язык                                     : Russian
Service kind                             : Complete Main
Default                                  : Да
Forced                                   : Нет
Аудио #2
Идентификатор                            : 3
Формат                                   : AC-3
Формат/Информация                        : Audio Coding 3
Коммерческое название                    : Dolby Digital
Идентификатор кодека                     : A_AC3
Продолжительность                        : 2 ч. 17 м.
Вид битрейта                             : Постоянный
Битрейт                                  : 448 Кбит/сек
Каналы                                   : 6 каналов
Channel layout                           : L R C LFE Ls Rs
Частота                                  : 48,0 КГц
Частота кадров                           : 31,250 кадров/сек (1536 SPF)
Метод сжатия                             : С потерями
Размер потока                            : 440 Мбайт (2%)
Заголовок                                : DVO, Pazzl Voice
Язык                                     : Russian
Service kind                             : Complete Main
Default                                  : Нет
Forced                                   : Нет
Аудио #3
Идентификатор                            : 4
Формат                                   : AC-3
Формат/Информация                        : Audio Coding 3
Коммерческое название                    : Dolby Digital
Идентификатор кодека                     : A_AC3
Продолжительность                        : 2 ч. 13 м.
Вид битрейта                             : Постоянный
Битрейт                                  : 448 Кбит/сек
Каналы                                   : 6 каналов
Channel layout                           : L R C LFE Ls Rs
Частота                                  : 48,0 КГц
Частота кадров                           : 31,250 кадров/сек (1536 SPF)
Метод сжатия                             : С потерями
Размер потока                            : 429 Мбайт (2%)
Заголовок                                : MVO, HDRezka Studio
Язык                                     : Russian
Service kind                             : Complete Main
Default                                  : Нет
Forced                                   : Нет
Аудио #4
Идентификатор                            : 5
Формат                                   : AC-3
Формат/Информация                        : Audio Coding 3
Коммерческое название                    : Dolby Digital
Идентификатор кодека                     : A_AC3
Продолжительность                        : 2 ч. 13 м.
Вид битрейта                             : Постоянный
Битрейт                                  : 384 Кбит/сек
Каналы                                   : 6 каналов
Channel layout                           : L R C LFE Ls Rs
Частота                                  : 48,0 КГц
Частота кадров                           : 31,250 кадров/сек (1536 SPF)
Метод сжатия                             : С потерями
Размер потока                            : 368 Мбайт (1%)
Заголовок                                : MVO, HDRezka Studio
Язык                                     : Ukrainian
Service kind                             : Complete Main
Default                                  : Нет
Forced                                   : Нет
Аудио #5
Идентификатор                            : 6
Формат                                   : E-AC-3
Формат/Информация                        : Enhanced AC-3
Коммерческое название                    : Dolby Digital Plus
Профиль формата                          : Blu-ray Disc
Идентификатор кодека                     : A_EAC3
Продолжительность                        : 2 ч. 13 м.
Вид битрейта                             : Постоянный
Битрейт                                  : 1 536 Кбит/сек
Каналы                                   : 8 каналов / 6 каналов
Channel layout                           : L R C LFE Ls Rs Lb Rb / L R C LFE Ls Rs
Частота                                  : 48,0 КГц
Частота кадров                           : 31,250 кадров/сек (1536 SPF)
Метод сжатия                             : С потерями
Размер потока                            : 1,44 Гбайт (6%)
Заголовок                                : Original
Язык                                     : English
Service kind                             : Complete Main
Default                                  : Нет
Forced                                   : Нет
Текст #1
Идентификатор                            : 7
Формат                                   : UTF-8
Идентификатор кодека                     : S_TEXT/UTF8
Идентификатор кодека/Информация          : UTF-8 Plain Text
Продолжительность                        : 2 ч. 4 м.
Битрейт                                  : 7 бит/сек
Count of elements                        : 146
Размер потока                            : 6,96 Кбайт (0%)
Заголовок                                : Forced
Язык                                     : Russian
Default                                  : Да
Forced                                   : Нет
Текст #2
Идентификатор                            : 8
Формат                                   : UTF-8
Идентификатор кодека                     : S_TEXT/UTF8
Идентификатор кодека/Информация          : UTF-8 Plain Text
Продолжительность                        : 2 ч. 6 м.
Битрейт                                  : 81 бит/сек
Count of elements                        : 1563
Размер потока                            : 75,5 Кбайт (0%)
Заголовок                                : FOCS
Язык                                     : Russian
Default                                  : Нет
Forced                                   : Нет
Текст #3
Идентификатор                            : 9
Формат                                   : UTF-8
Идентификатор кодека                     : S_TEXT/UTF8
Идентификатор кодека/Информация          : UTF-8 Plain Text
Продолжительность                        : 2 ч. 8 м.
Битрейт                                  : 71 бит/сек
Count of elements                        : 1557
Размер потока                            : 66,7 Кбайт (0%)
Заголовок                                : PhysKids
Язык                                     : Russian
Default                                  : Нет
Forced                                   : Нет
Текст #4
Идентификатор                            : 10
Формат                                   : UTF-8
Идентификатор кодека                     : S_TEXT/UTF8
Идентификатор кодека/Информация          : UTF-8 Plain Text
Продолжительность                        : 2 ч. 2 м.
Битрейт                                  : 2 бит/сек
Count of elements                        : 38
Размер потока                            : 1,88 Кбайт (0%)
Заголовок                                : Forced
Язык                                     : Ukrainian
Default                                  : Нет
Forced                                   : Нет
Текст #5
Идентификатор                            : 11
Формат                                   : UTF-8
Идентификатор кодека                     : S_TEXT/UTF8
Идентификатор кодека/Информация          : UTF-8 Plain Text
Продолжительность                        : 2 ч. 6 м.
Битрейт                                  : 45 бит/сек
Count of elements                        : 1576
Размер потока                            : 41,9 Кбайт (0%)
Заголовок                                : Full
Язык                                     : English
Default                                  : Нет
Forced                                   : Нет
Текст #6
Идентификатор                            : 12
Формат                                   : UTF-8
Идентификатор кодека                     : S_TEXT/UTF8
Идентификатор кодека/Информация          : UTF-8 Plain Text
Продолжительность                        : 2 ч. 11 м.
Битрейт                                  : 51 бит/сек
Count of elements                        : 1902
Размер потока                            : 49,4 Кбайт (0%)
Заголовок                                : Full-SDH
Язык                                     : English
Default                                  : Нет
Forced                                   : Нет
Меню
00:00:00.000                             : Chapter 1
00:05:08.266                             : Chapter 2
00:15:21.295                             : Chapter 3
00:25:48.881                             : Chapter 4
00:30:55.103                             : Chapter 5
00:34:31.194                             : Chapter 6
00:35:42.974                             : Chapter 7
00:39:34.998                             : Chapter 8
00:42:35.595                             : Chapter 9
00:46:27.451                             : Chapter 10
00:52:29.396                             : Chapter 11
00:58:15.659                             : Chapter 12
01:04:44.089                             : Chapter 13
01:15:05.126                             : Chapter 14
01:17:16.715                             : Chapter 15
01:21:10.741                             : Chapter 16
01:23:12.738                             : Chapter 17
01:26:23.512                             : Chapter 18
01:30:43.897                             : Chapter 19
01:37:40.813                             : Chapter 20
01:47:32.404                             : Chapter 21
01:55:29.965                             : Chapter 22
02:00:19.629                             : Chapter 23
02:02:48.570                             : Chapter 24
02:04:32.215                             : Chapter 25
02:06:18.696                             : Chapter 26
02:07:25.388                             : Chapter 27

Скриншоты

[Цитировать]



Показать сообщения:    

Текущее время: 20-Сен 02:46

Часовой пояс: UTC + 6


Вы не можете начинать темы
Вы не можете отвечать на сообщения
Вы не можете редактировать свои сообщения
Вы не можете удалять свои сообщения
Вы не можете голосовать в опросах
Вы не можете прикреплять файлы к сообщениям
Вы не можете скачивать файлы

!ВНИМАНИЕ!
Сайт не предоставляет электронные версии произведений, а занимается лишь коллекционированием и каталогизацией ссылок, присылаемых и публикуемых на форуме нашими читателями. Если вы являетесь правообладателем какого-либо представленного материала и не желаете, чтобы ссылка на него находилась в нашем каталоге, свяжитесь с нами, и мы незамедлительно удалим ее. Файлы для обмена на трекере предоставлены пользователями сайта, и администрация не несет ответственности за их содержание. Просьба не заливать файлы, защищенные авторскими правами, а также файлы нелегального содержания!