***Уважаемые пользователи и гости !!! Сайт переехал на новый домен Torrents-club.info. Просьба изменить ваши закладки! ***
 
[ Сегодня идет свободное скачивание без начисления Download ]


Статистика раздачи
Нет
 
   
 
 
 
Донбасс Реалии (25.04.2022)
Бои за Мариуполь: что рассказали окруженные защитники города
Год выпуска: 2022
Жанр: Документальный, аналитика
Выпущено: Украина, Спутниковый телеканал "Настоящее время" (Current Time TV) SD
Продолжительность: ~ 00:33:22
Язык: Русский
Описание:
Донбасс Реалии - эксклюзивные факты о Донбассе.
Жизнь группировок «ЛНР» и «ДНР», поставки оружия, досье на боевиков,
российские кадровые военные, иностранные наёмники, коррупционные схемы в зоне АТО.
Громкие расследования и неопровержимые доказательства участия России в войне на Востоке Украины.
Мы рассказываем то, о чем молчат другие.
В выпуске: Бои за Мариуполь: что рассказали окруженные защитники города.
Есть Реклама - логотип ТВ канала
Формат: mp4
Качество: WEBRip 1080p
Видео: MPEG-4 AVC, 2719 Кбит/с, 1920x1080
Аудио: AAC, 2 ch, 128 Кбит/с

Тема выпуска

Эксклюзив. Нам удалось связаться с защитниками блокадного Мариуполя, которые находятся на Азовстали.
Они рассказали – что с ними сейчас происходит.
Полк Азов, 36 бригада морской пехоты, мариупольская полиция и мирные жители окружены российской армией.
Российские военные полностью разбомбили большой промышленный город на Донбассе.
Украинские военные держат оборону завода Азовсталь.
Путин хочет любой ценой захватить Мариуполь, чтобы создать сухопутный коридор в Крым.
Танки, авиация, артиллерия – чем Россия обстреливает город на Азовском море в Украине?
Что рассказывают выжившие?

MediaInfo:

Общее
Полное имя : D:\donbass_realii_25_04_2022.mp4
Формат : MPEG-4
Профиль формата : Base Media
Идентификатор кодека : isom (isom/iso2/avc1/mp41)
Размер файла : 682 Мбайт
Продолжительность : 33 м. 22 с.
Общий поток : 2 859 Кбит/сек
Название фильма : Бои за Мариуполь: что рассказали окруженные защитники города | Донбасс Реалии
Исполнитель : Радіо Свобода
Дата записи : 20220424
Программа кодирования : Lavf58.76.100
Обложка : Yes
Видео
Идентификатор : 1
Формат : AVC
Формат/Информация : Advanced Video Codec
Профиль формата : High@L4
Настройки формата : CABAC / 3 Ref Frames
Параметр CABAC формата : Да
Параметр RefFrames формата : 3 кадра
Идентификатор кодека : avc1
Идентификатор кодека/Информация : Advanced Video Coding
Продолжительность : 33 м. 22 с.
Битрейт : 2 719 Кбит/сек
Ширина : 1 920 пикселей
Высота : 1 080 пикселей
Соотношение сторон : 16:9
Режим частоты кадров : Постоянный
Частота кадров : 25, 000 кадров/сек
Цветовое пространство : YUV
Субдискретизация насыщенности : 4:2:0
Битовая глубина : 8 бит
Тип развёртки : Прогрессивная
Бит/(Пиксели*Кадры) : 0.052
Размер потока : 649 Мбайт (95%)
Заголовок : ISO Media file produced by Google Inc.
Цветовой диапазон : Limited
Основные цвета : BT.709
Характеристики трансфера : BT.709
Коэффициенты матрицы : BT.709
Menus : 4
Codec configuration box : avcC
Аудио
Идентификатор : 2
Формат : AAC LC
Формат/Информация : Advanced Audio Codec Low Complexity
Идентификатор кодека : mp4a-40-2
Продолжительность : 33 м. 22 с.
Вид битрейта : Постоянный
Битрейт : 128 Кбит/сек
Каналы : 2 канала
Channel layout : L R
Частота : 44, 1 КГц
Частота кадров : 43, 066 кадра/сек (1024 SPF)
Метод сжатия : С потерями
Размер потока : 30, 6 Мбайт (4%)
Заголовок : ISO Media file produced by Google Inc.
Язык : English
Default : Да
Alternate group : 1
Menus : 4

Скриншоты

[Цитировать]

Постанова

[Цитировать]

299631Постанова
Что именно?

[Цитировать]



Показать сообщения:    

Текущее время: 22-Май 13:38

Часовой пояс: UTC + 6


Вы не можете начинать темы
Вы не можете отвечать на сообщения
Вы не можете редактировать свои сообщения
Вы не можете удалять свои сообщения
Вы не можете голосовать в опросах
Вы не можете прикреплять файлы к сообщениям
Вы не можете скачивать файлы

!ВНИМАНИЕ!
Сайт не предоставляет электронные версии произведений, а занимается лишь коллекционированием и каталогизацией ссылок, присылаемых и публикуемых на форуме нашими читателями. Если вы являетесь правообладателем какого-либо представленного материала и не желаете, чтобы ссылка на него находилась в нашем каталоге, свяжитесь с нами, и мы незамедлительно удалим ее. Файлы для обмена на трекере предоставлены пользователями сайта, и администрация не несет ответственности за их содержание. Просьба не заливать файлы, защищенные авторскими правами, а также файлы нелегального содержания!