***Уважаемые пользователи и гости !!! Сайт переехал на новый домен Torrents-club.info. Просьба изменить ваши закладки! ***
 
[ Сегодня идет свободное скачивание без начисления Download ]


Статистика раздачи
Нет
 
   
 
 
 
Paul McCartney And Wings - Red Rose Speedway (1973) 3CD, Super Deluxe Box Set Universal Musiс 2018- Год: 1973/2018
Лейбл: MPL, Capitol Records, Universal Music
Номер по каталогу: UICY-78861
Жанр: Rock, Pop Rock
Страна: Великобритания
Продолжительность: 03:11:24
Кодек: FLAC
Битрейт: Lossless
Тип рипа: image + .cue
Сканы в раздаче: Full (3.5Gb)
Автор рипа: ALLexxess-Описание: Red Rose Speedway (рус. Автострада Красной Розы) — второй альбом Пола Маккартни и созданной им группы Wings (является четвёртым в дискографии Пола Маккартни вне и после его участия в группе The Beatles), выпущен в 1973 году лейблом Apple Records после относительного коммерческого неуспеха дебютного альбома Wings Wild Life (возможно, одной из причин этого неуспеха было то, что авторами-исполнителями альбома была ещё малоизвестная группа Wings без упоминания — в названии группы — того, что это группа Маккартни). Альбом достиг 1-й позиции в чарте Billboard 200.-

CD1 - Remastered Album

-Продолжительнoсть: 00:42:24-Треклист:
01 | Big Barn Bed | 03:50
02 | My Love | 04:08
03 | Get On The Right Thing | 04:17
04 | One More Kiss | 02:29
05 | Little Lamb Dragonfly | 06:23
06 | Single Pigeon | 01:53
07 | When The Night | 03:37
08 | Loup (1st Indian On The Moon) | 04:23
09 | Medley: Hold Me Tight/Lazy Dynamite/Hands of Love/Power Cut | 11:21 Exact Audio Copy V1.3 from 2. September 2016
EAC extraction logfile from 16. March 2019, 16:25
Paul McCartney And Wings / Red Rose Speedway CD1 Remastered Album
Used drive : PLEXTOR BD-R PX-B950SA Adapter: 1 ID: 1
Read mode : Secure
Utilize accurate stream : Yes
Defeat audio cache : Yes
Make use of C2 pointers : No
Read offset correction : 6
Overread into Lead-In and Lead-Out : No
Fill up missing offset samples with silence : Yes
Delete leading and trailing silent blocks : No
Null samples used in CRC calculations : Yes
Used interface : Native Win32 interface for Win NT & 2000
Used output format : Internal WAV Routines
Sample format : 44.100 Hz; 16 Bit; Stereo
TOC of the extracted CD
Track | Start | Length | Start sector | End sector
---------------------------------------------------------
1 | 0:00.00 | 3:50.14 | 0 | 17263
2 | 3:50.14 | 4:08.08 | 17264 | 35871
3 | 7:58.22 | 4:17.17 | 35872 | 55163
4 | 12:15.39 | 2:29.51 | 55164 | 66389
5 | 14:45.15 | 6:23.62 | 66390 | 95176
6 | 21:09.02 | 1:53.12 | 95177 | 103663
7 | 23:02.14 | 3:37.58 | 103664 | 119996
8 | 26:39.72 | 4:23.46 | 119997 | 139767
9 | 31:03.43 | 11:21.21 | 139768 | 190863
Range status and errors
Selected range
Filename C:\Users\Alex\Desktop\Lossless Galaxy ALLexxess\Paul McCartney\1973 Red Rose Speedway (6-Disc Box Set Universal Music 2018)\CD1 Remastered Album\Paul McCartney And Wings - Red Rose Speedway CD1.wav
Peak level 99.0 %
Extraction speed 7.1 X
Range quality 100.0 %
Test CRC F8A7AAEE
Copy CRC F8A7AAEE
Copy OK
No errors occurred
AccurateRip summary
Track 1 accurately ripped (confidence 19) [A7BDF316] (AR v2)
Track 2 accurately ripped (confidence 18) [B53D934F] (AR v2)
Track 3 accurately ripped (confidence 19) [8AEBD327] (AR v2)
Track 4 accurately ripped (confidence 19) [81EA94EE] (AR v2)
Track 5 accurately ripped (confidence 19) [72976F23] (AR v2)
Track 6 accurately ripped (confidence 19) [79A2004F] (AR v2)
Track 7 accurately ripped (confidence 18) [E35A36C4] (AR v2)
Track 8 accurately ripped (confidence 19) [341129AB] (AR v2)
Track 9 accurately ripped (confidence 19) [7EB57878] (AR v2)
All tracks accurately ripped
End of status report
---- CUETools DB Plugin V2.1.6
[CTDB TOCID: nRu.YDViK7hgqmVrg2ugjnYvWnM-] found
Submit result: nRu.YDViK7hgqmVrg2ugjnYvWnM- has been confirmed
Track | CTDB Status
1 | (156/156) Accurately ripped
2 | (155/156) Accurately ripped
3 | (156/156) Accurately ripped
4 | (156/156) Accurately ripped
5 | (156/156) Accurately ripped
6 | (156/156) Accurately ripped
7 | (156/156) Accurately ripped
8 | (156/156) Accurately ripped
9 | (154/156) Accurately ripped
==== Log checksum 680FBEFC72E5A0ADE132A31F2530A786444147E07A53E2BE5AE61D2EA4BA3BB1 ====

CD2 - Remastered Double Album

-Продолжительнoсть: 01:16:02-01 | Night Out | 02:16
02 | Get On The Right Thing | 04:18
03 | Country Dreamer | 03:10
04 | Big Barn Bed | 03:50
05 | My Love | 04:09
06 | Single Pigeon | 01:54
07 | When The Night | 03:38
08 | Seaside Woman | 03:57
09 | I Lie Around | 05:01
10 | The Mess (Live At The Hague) | 04:34
11 | Best Friend (Live In Antwerp) | 04:00
12 | Loup (1st Indian On The Moon) | 04:25
13 | Medley | 11:19
14 | Mama's Little Girl | 03:45
15 | I Would Only Smile | 03:24
16 | One More Kiss | 02:30
17 | Tragedy | 03:21
18 | Little Lamb Dragonfly | 06:23 Exact Audio Copy V1.3 from 2. September 2016
EAC extraction logfile from 16. March 2019, 16:00
Paul McCartney And Wings / Red Rose Speedway CD2 Double Album
Used drive : PLEXTOR BD-R PX-B950SA Adapter: 1 ID: 1
Read mode : Secure
Utilize accurate stream : Yes
Defeat audio cache : Yes
Make use of C2 pointers : No
Read offset correction : 6
Overread into Lead-In and Lead-Out : No
Fill up missing offset samples with silence : Yes
Delete leading and trailing silent blocks : No
Null samples used in CRC calculations : Yes
Used interface : Native Win32 interface for Win NT & 2000
Used output format : Internal WAV Routines
Sample format : 44.100 Hz; 16 Bit; Stereo
TOC of the extracted CD
Track | Start | Length | Start sector | End sector
---------------------------------------------------------
1 | 0:00.00 | 2:16.39 | 0 | 10238
2 | 2:16.39 | 4:18.44 | 10239 | 29632
3 | 6:35.08 | 3:10.27 | 29633 | 43909
4 | 9:45.35 | 3:50.52 | 43910 | 61211
5 | 13:36.12 | 4:09.13 | 61212 | 79899
6 | 17:45.25 | 1:54.47 | 79900 | 88496
7 | 19:39.72 | 3:38.08 | 88497 | 104854
8 | 23:18.05 | 3:57.58 | 104855 | 122687
9 | 27:15.63 | 5:01.56 | 122688 | 145318
10 | 32:17.44 | 4:34.05 | 145319 | 165873
11 | 36:51.49 | 4:00.21 | 165874 | 183894
12 | 40:51.70 | 4:25.14 | 183895 | 203783
13 | 45:17.09 | 11:19.67 | 203784 | 254775
14 | 56:37.01 | 3:45.57 | 254776 | 271707
15 | 60:22.58 | 3:24.01 | 271708 | 287008
16 | 63:46.59 | 2:30.14 | 287009 | 298272
17 | 66:16.73 | 3:21.32 | 298273 | 313379
18 | 69:38.30 | 6:23.71 | 313380 | 342175
Range status and errors
Selected range
Filename C:\Users\Alex\Desktop\Lossless Galaxy ALLexxess\Paul McCartney\1973 Red Rose Speedway (6-Disc Box Set Universal Music 2018)\CD2 Remastered Double Album\Paul McCartney And Wings - Red Rose Speedway CD2.wav
Peak level 99.1 %
Extraction speed 8.5 X
Range quality 99.9 %
Test CRC 2DABF83E
Copy CRC 2DABF83E
Copy OK
No errors occurred
AccurateRip summary
Track 1 accurately ripped (confidence 7) [03CCFAA8] (AR v2)
Track 2 accurately ripped (confidence 7) [3937366E] (AR v2)
Track 3 accurately ripped (confidence 7) [F619C8C4] (AR v2)
Track 4 accurately ripped (confidence 7) [CE68324E] (AR v2)
Track 5 accurately ripped (confidence 7) [D260F3F2] (AR v2)
Track 6 accurately ripped (confidence 7) [A01DDE46] (AR v2)
Track 7 accurately ripped (confidence 7) [296482CF] (AR v2)
Track 8 accurately ripped (confidence 7) [EAF12D49] (AR v2)
Track 9 accurately ripped (confidence 7) [2F45C611] (AR v2)
Track 10 accurately ripped (confidence 7) [7745F6C0] (AR v2)
Track 11 accurately ripped (confidence 7) [F7A1EDB1] (AR v2)
Track 12 accurately ripped (confidence 7) [62B631BA] (AR v2)
Track 13 accurately ripped (confidence 7) [0D6B629E] (AR v2)
Track 14 accurately ripped (confidence 7) [0DBB1FDB] (AR v2)
Track 15 accurately ripped (confidence 7) [70454C16] (AR v2)
Track 16 accurately ripped (confidence 7) [59398304] (AR v2)
Track 17 accurately ripped (confidence 7) [53CBB93D] (AR v2)
Track 18 accurately ripped (confidence 7) [85E74AA7] (AR v2)
All tracks accurately ripped
End of status report
---- CUETools DB Plugin V2.1.6
[CTDB TOCID: OTn5EYRQxJKiVvHUO9rZlHTMr04-] found
Submit result: OTn5EYRQxJKiVvHUO9rZlHTMr04- has been confirmed
Track | CTDB Status
1 | (53/53) Accurately ripped
2 | (53/53) Accurately ripped
3 | (53/53) Accurately ripped
4 | (53/53) Accurately ripped
5 | (53/53) Accurately ripped
6 | (53/53) Accurately ripped
7 | (53/53) Accurately ripped
8 | (53/53) Accurately ripped
9 | (53/53) Accurately ripped
10 | (53/53) Accurately ripped
11 | (53/53) Accurately ripped
12 | (53/53) Accurately ripped
13 | (53/53) Accurately ripped
14 | (53/53) Accurately ripped
15 | (53/53) Accurately ripped
16 | (53/53) Accurately ripped
17 | (53/53) Accurately ripped
18 | (52/53) Accurately ripped
==== Log checksum C35CF2B5131F5F651CE8587AEA9DFD7A4B6005CCF554DDCE3A3363DD0ED3E922 ====

CD3 - Bonus Audio

-Продолжительнoсть: 01:12:57-01 | Mary Had A Little Lamb | 03:34
02 | Little Woman Love | 02:08
03 | Hi, Hi, Hi | 03:10
04 | C Moon | 04:36
05 | Live And Let Die | 03:14
06 | Get On The Right Thing (Early Mix) | 04:43
07 | Little Lamb Dragonfly (Early Mix) | 06:10
08 | Little Woman Love (Early Mix) | 02:10
09 | 1882 (Home Recording) | 03:28
10 | Big Barn Bed (Rough Mix) | 03:49
11 | The Mess | 04:55
12 | Thank You Darling | 03:20
13 | Mary Had A Little Lamb (Rough Mix) | 05:24
14 | 1882 (Live In Berlin) | 06:32
15 | 1882 | 06:52
16 | Jazz Street | 05:10
17 | Live And Let Die (Group Only, Take 10) | 03:33 Exact Audio Copy V1.3 from 2. September 2016
EAC extraction logfile from 16. March 2019, 15:25
Paul McCartney And Wings / Red Rose Speedway CD3 Bonus Audio
Used drive : PLEXTOR BD-R PX-B950SA Adapter: 1 ID: 1
Read mode : Secure
Utilize accurate stream : Yes
Defeat audio cache : Yes
Make use of C2 pointers : No
Read offset correction : 6
Overread into Lead-In and Lead-Out : No
Fill up missing offset samples with silence : Yes
Delete leading and trailing silent blocks : No
Null samples used in CRC calculations : Yes
Used interface : Native Win32 interface for Win NT & 2000
Used output format : Internal WAV Routines
Sample format : 44.100 Hz; 16 Bit; Stereo
TOC of the extracted CD
Track | Start | Length | Start sector | End sector
---------------------------------------------------------
1 | 0:00.00 | 3:34.51 | 0 | 16100
2 | 3:34.51 | 2:08.61 | 16101 | 25761
3 | 5:43.37 | 3:10.49 | 25762 | 40060
4 | 8:54.11 | 4:36.10 | 40061 | 60770
5 | 13:30.21 | 3:14.40 | 60771 | 75360
6 | 16:44.61 | 4:43.56 | 75361 | 96641
7 | 21:28.42 | 6:10.51 | 96642 | 124442
8 | 27:39.18 | 2:10.56 | 124443 | 134248
9 | 29:49.74 | 3:28.28 | 134249 | 149876
10 | 33:18.27 | 3:49.58 | 149877 | 167109
11 | 37:08.10 | 4:55.10 | 167110 | 189244
12 | 42:03.20 | 3:20.46 | 189245 | 204290
13 | 45:23.66 | 5:24.42 | 204291 | 228632
14 | 50:48.33 | 6:32.66 | 228633 | 258098
15 | 57:21.24 | 6:52.59 | 258099 | 289057
16 | 64:14.08 | 5:10.34 | 289058 | 312341
17 | 69:24.42 | 3:33.08 | 312342 | 328324
Range status and errors
Selected range
Filename C:\Users\Alex\Desktop\Lossless Galaxy ALLexxess\Paul McCartney\1973 Red Rose Speedway (6-Disc Box Set Universal Music 2018)\CD3 Bonus Audio\Paul McCartney And Wings - Red Rose Speedway CD3.wav
Peak level 98.5 %
Extraction speed 8.2 X
Range quality 100.0 %
Test CRC F85AE201
Copy CRC F85AE201
Copy OK
No errors occurred
AccurateRip summary
Track 1 accurately ripped (confidence 8) [7E2C54D1] (AR v2)
Track 2 accurately ripped (confidence 8) [6CF59809] (AR v2)
Track 3 accurately ripped (confidence 8) [87D586DC] (AR v2)
Track 4 accurately ripped (confidence 8) [CDB00A49] (AR v2)
Track 5 accurately ripped (confidence 8) [E8C91B4E] (AR v2)
Track 6 accurately ripped (confidence 8) [8C0E4DC4] (AR v2)
Track 7 accurately ripped (confidence 8) [4DEB7697] (AR v2)
Track 8 accurately ripped (confidence 8) [C100D4ED] (AR v2)
Track 9 accurately ripped (confidence 8) [8FA6F981] (AR v2)
Track 10 accurately ripped (confidence 8) [9F2606D6] (AR v2)
Track 11 accurately ripped (confidence 8) [B07D6260] (AR v2)
Track 12 accurately ripped (confidence 8) [CD0BBB2E] (AR v2)
Track 13 accurately ripped (confidence 8) [E673BFD3] (AR v2)
Track 14 accurately ripped (confidence 8) [D1882AB8] (AR v2)
Track 15 accurately ripped (confidence 8) [3E90E04F] (AR v2)
Track 16 accurately ripped (confidence 8) [767C1E1B] (AR v2)
Track 17 accurately ripped (confidence 8) [89939DCE] (AR v2)
All tracks accurately ripped
End of status report
---- CUETools DB Plugin V2.1.6
[CTDB TOCID: LX5WKOCEJw5yRHsMez_tnxnYIAY-] found
Submit result: LX5WKOCEJw5yRHsMez_tnxnYIAY- has been confirmed
Track | CTDB Status
1 | (55/55) Accurately ripped
2 | (55/55) Accurately ripped
3 | (55/55) Accurately ripped
4 | (55/55) Accurately ripped
5 | (55/55) Accurately ripped
6 | (55/55) Accurately ripped
7 | (55/55) Accurately ripped
8 | (55/55) Accurately ripped
9 | (55/55) Accurately ripped
10 | (55/55) Accurately ripped
11 | (55/55) Accurately ripped
12 | (55/55) Accurately ripped
13 | (55/55) Accurately ripped
14 | (55/55) Accurately ripped
15 | (55/55) Accurately ripped
16 | (55/55) Accurately ripped
17 | (54/55) Accurately ripped
==== Log checksum A66AD4BC5820659EF98137988E3F522DBC305A40AC834D772E13C0BE1246BA82 ====
-

[Цитировать]



Показать сообщения:    

Текущее время: 23-Май 14:31

Часовой пояс: UTC + 6


Вы не можете начинать темы
Вы не можете отвечать на сообщения
Вы не можете редактировать свои сообщения
Вы не можете удалять свои сообщения
Вы не можете голосовать в опросах
Вы не можете прикреплять файлы к сообщениям
Вы не можете скачивать файлы

!ВНИМАНИЕ!
Сайт не предоставляет электронные версии произведений, а занимается лишь коллекционированием и каталогизацией ссылок, присылаемых и публикуемых на форуме нашими читателями. Если вы являетесь правообладателем какого-либо представленного материала и не желаете, чтобы ссылка на него находилась в нашем каталоге, свяжитесь с нами, и мы незамедлительно удалим ее. Файлы для обмена на трекере предоставлены пользователями сайта, и администрация не несет ответственности за их содержание. Просьба не заливать файлы, защищенные авторскими правами, а также файлы нелегального содержания!