***Уважаемые пользователи и гости !!! Сайт переехал на новый домен Torrents-club.info. Просьба изменить ваши закладки! ***
 
[ Сегодня идет свободное скачивание без начисления Download ]


Статистика раздачи
Нет
 
   
 
 
 
Затерянный город / The Lost City (2022) WEB-DLRip 720p | 60 fps Год выпуска: 2022
Страна: США
Жанр: Комедия, приключения, мелодрама, боевик
Продолжительность: 01:51:45
Перевод: Любительский (многоголосый, закадровый) | GostFilm
Субтитры: English
Режиссер: Аарон Ни, Адам Ни
Премьера в мире: 12 марта 2022

В ролях:
Сандра Баллок, Ченнинг Татум, Дэниэл Рэдклифф, Да Вин Джой Рэндольф, Оскар Нуньес, Патти Харрисон, Брэд Питт, Рэймонд Ли, Томас Форбс-Джонсон, Эктор Анибал
Описание:
Лоретта Сейдж пишет популярные любовно-приключенческие романы. События в них непременно разворачиваются в экзотических местах, а главный герой — красавчик и мечта героинь Дэш, которого в жизни воплощает модель Алан. Во время промотура нового бестселлера Лоретту похищает эксцентричный миллиардер, уверенный, что она сможет привести его к сокровищам древнего затерянного города из ее последней книги. Алан решает доказать, что может быть героем в реальной жизни, а не только на страницах книг, и отправляется Лоретте на выручку.
Качество: WEB-DLRip 720p / 60 FPS
Формат: MKV
Видео кодек: H.264
Аудио кодек: AC3
Видео: x264, 1280 x 536 ( 2,40:1 ), 4419 kbps, 60,000 fps, ( 0.107 bpp)
Аудио#1: Русский, AC-3, 48.0 KHz, 2 ch, 192 Kbps MVO (GostFilm)

MediaInfo:

x264 [info]: profile High, level 4.1
x264 [info]: frame I:1718 Avg QP:14.06 size: 88117
x264 [info]: frame P:89300 Avg QP:15.54 size: 22785
x264 [info]: frame B:310890 Avg QP:18.38 size: 4869
x264 [info]: consecutive B-frames: 2.0% 1.6% 4.3% 15.4% 53.5% 23.2%
Общее
Уникальный идентификатор : 196648880242808404415330162917000537632 (0x93F1325ADD593CD15F39794FA16EE620)
Полное имя : G:\60 FPS\The.Lost.City.(2022).WEB-DLRip.720p.(60 Fps).mkv
Формат : Matroska
Версия формата : Version 4
Размер файла : 3,60 Гбайт
Продолжительность : 1 ч. 51 м.
Общий поток : 4615 Кбит/сек
Название фильма : Затерянный город / The Lost City (2022) WEB-DLRip 720p (60 Fps)
Дата кодирования : UTC 2022-05-12 10:11:01
Программа кодирования : mkvmerge v25.0.0 ('Prog Noir') 64-bit
Библиотека кодирования : libebml v1.3.6 + libmatroska v1.4.9
Видео
Идентификатор : 1
Формат : AVC
Формат/Информация : Advanced Video Codec
Профиль формата : High@L4.1
Настройки формата : CABAC / 9 Ref Frames
Параметр CABAC формата : Да
Параметр RefFrames формата : 9 кадров
Идентификатор кодека : V_MPEG4/ISO/AVC
Продолжительность : 1 ч. 51 м.
Битрейт : 4419 Кбит/сек
Ширина : 1280 пикселей
Высота : 536 пикселей
Соотношение сторон : 2,40:1
Режим частоты кадров : Постоянный
Частота кадров : 60,000 кадров/сек
Цветовое пространство : YUV
Субдискретизация насыщенности : 4:2:0
Битовая глубина : 8 бит
Тип развёртки : Прогрессивная
Бит/(Пиксели*Кадры) : 0.107
Размер потока : 3,45 Гбайт (96%)
Заголовок : slaventi-69 ( R.G. HD-Films | 60 fps )
Библиотека кодирования : x264 core 130 r2273 b3065e6
Настройки программы : cabac=1 / ref=9 / deblock=1:-3:-3 / analyse=0x3:0x133 / me=umh / subme=9 / psy=1 / psy_rd=1.00:0.00 / mixed_ref=1 / me_range=32 / chroma_me=1 / trellis=2 / 8x8dct=1 / cqm=0 / deadzone=21,11 / fast_pskip=0 / chroma_qp_offset=-2 / threads=6 / lookahead_threads=2 / sliced_threads=0 / nr=0 / decimate=1 / interlaced=0 / bluray_compat=0 / constrained_intra=0 / bframes=5 / b_pyramid=2 / b_adapt=2 / b_bias=0 / direct=1 / weightb=1 / open_gop=0 / weightp=2 / keyint=600 / keyint_min=23 / scenecut=40 / intra_refresh=0 / rc=crf / mbtree=0 / crf=15.0 / qcomp=0.60 / qpmin=0 / qpmax=69 / qpstep=4 / ip_ratio=1.40 / pb_ratio=1.30 / aq=1:1.00
Язык : English
Default : Да
Forced : Нет
Аудио
Идентификатор : 2
Формат : AC-3
Формат/Информация : Audio Coding 3
Коммерческое название : Dolby Digital
Идентификатор кодека : A_AC3
Продолжительность : 1 ч. 51 м.
Вид битрейта : Постоянный
Битрейт : 192 Кбит/сек
Каналы : 2 канала
Channel layout : L R
Частота : 48,0 КГц
Частота кадров : 31,250 кадров/сек (1536 SPF)
Битовая глубина : 16 бит
Метод сжатия : С потерями
Размер потока : 153 Мбайт (4%)
Заголовок : MVO (GostFilm)
Язык : Russian
ServiceKind/String : Complete Main
Default : Да
Forced : Нет
Текст #1
Идентификатор : 3
Формат : UTF-8
Идентификатор кодека : S_TEXT/UTF8
Идентификатор кодека/Информация : UTF-8 Plain Text
Продолжительность : 1 ч. 45 м.
Битрейт : 78 бит/сек
ElementCount : 1720
Размер потока : 60,2 Кбайт (0%)
Заголовок : Full
Язык : English
Default : Нет
Forced : Нет
Текст #2
Идентификатор : 4
Формат : UTF-8
Идентификатор кодека : S_TEXT/UTF8
Идентификатор кодека/Информация : UTF-8 Plain Text
Продолжительность : 1 ч. 45 м.
Битрейт : 87 бит/сек
ElementCount : 1908
Размер потока : 67,7 Кбайт (0%)
Заголовок : SDH
Язык : English
Default : Нет
Forced : Нет
Меню
00:00:00.000 : en:Chapter 1
00:11:26.000 : en:Chapter 2
00:19:31.000 : en:Chapter 3
00:26:55.000 : en:Chapter 4
00:33:43.000 : en:Chapter 5
00:41:29.000 : en:Chapter 6
00:50:29.000 : en:Chapter 7
01:02:19.000 : en:Chapter 8
01:13:31.000 : en:Chapter 9
01:23:19.000 : en:Chapter 10
01:34:35.000 : en:Chapter 11
01:44:52.000 : en:Chapter 12

[Цитировать]



Показать сообщения:    

Текущее время: 22-Май 14:13

Часовой пояс: UTC + 6


Вы не можете начинать темы
Вы не можете отвечать на сообщения
Вы не можете редактировать свои сообщения
Вы не можете удалять свои сообщения
Вы не можете голосовать в опросах
Вы не можете прикреплять файлы к сообщениям
Вы не можете скачивать файлы

!ВНИМАНИЕ!
Сайт не предоставляет электронные версии произведений, а занимается лишь коллекционированием и каталогизацией ссылок, присылаемых и публикуемых на форуме нашими читателями. Если вы являетесь правообладателем какого-либо представленного материала и не желаете, чтобы ссылка на него находилась в нашем каталоге, свяжитесь с нами, и мы незамедлительно удалим ее. Файлы для обмена на трекере предоставлены пользователями сайта, и администрация не несет ответственности за их содержание. Просьба не заливать файлы, защищенные авторскими правами, а также файлы нелегального содержания!