***Уважаемые пользователи и гости !!! Сайт переехал на новый домен Torrents-club.info. Просьба изменить ваши закладки! ***
 
[ Сегодня идет свободное скачивание без начисления Download ]


Статистика раздачи
Скачал: [ 1 ]
 
   
 
 
 
 
Хроники хищных городов / Mortal Engines- Производство: Новая Зеландия, США / Media Rights Capital (MRC), Scholastic Productions, Silvertongue Films
Жанр: Фантастика, фэнтези, боевик
Режиссер: Кристиан Риверс
Актеры: Херa Хильмар, Роберт Шиэн, Хьюго Уивинг, Джихе, Ронан Рафтери, Лейла Джордж, Патрик Мэлахайд, Стивен Лэнг, Колин Сэлмон, Марк Митчинсон
Описание:
Прошли тысячелетия после того, как мир настиг апокалипсис. Человечество адаптировалось и теперь живет по новым правилам. Гигантские движущиеся мегаполисы рассекают пустоши и поглощают маленькие города ради ресурсов. Том Нэтсуорти из нижнего уровня великого Лондона оказывается в смертельной опасности, когда на его пути появляется скрывающаяся от закона бунтарка Эстер Шоу. Они не должны были встретиться, но им суждено изменить будущее.
Возраст: 12+ (зрителям, достигшим 12 лет)
Рейтинг MPAA: PG-13 (детям до 13 лет просмотр нежелателен)
Продолжительность: 02:08:31
Качество видео: WEB-DLRip 1080p
Перевод: Дублированный (iTunes)
Субтитры: Отсутствуют
Видео: AVC/H.264, 1920x1080, ~4814 kbps
Аудио: AC3, 6 ch, 384 kbps - Русский

MediaInfo:

General
Unique ID : 201918766255338503702447655366473352576 (0x97E823CBAB32847FC9065F5DB7090580)
Complete name : F:\Хроники хищных городов (2018) (Open Matte).mkv
Format : Matroska
Format version : Version 4
File size : 4.67 GiB
Duration : 2 h 8 min
Overall bit rate : 5 199 kb/s
Movie name : Хроники хищных городов / Mortal Engines (2018) (Open Matte) - #LORDKILL#
Encoded date : UTC 2022-05-14 07:23:36
Writing application : mkvmerge v32.0.0 ('Astral Progressions') 64-bit
Writing library : libebml v1.3.7 + libmatroska v1.5.0
Video
ID : 1
Format : AVC
Format/Info : Advanced Video Codec
Format profile : High@L4.1
Format settings : CABAC / 4 Ref Frames
Format settings, CABAC : Yes
Format settings, Reference : 4 frames
Codec ID : V_MPEG4/ISO/AVC
Duration : 2 h 8 min
Bit rate : 4 814 kb/s
Width : 1 920 pixels
Height : 1 080 pixels
Display aspect ratio : 16:9
Frame rate mode : Constant
Frame rate : 23.976 (24000/1001) FPS
Color space : YUV
Chroma subsampling : 4:2:0
Bit depth : 8 bits
Scan type : Progressive
Bits/(Pixel*Frame) : 0.097
Stream size : 4.32 GiB (93%)
Writing library : x264 core 164 r3080 8a43cc1
Encoding settings : cabac=1 / ref=4 / deblock=1:-2:-2 / analyse=0x3:0x133 / me=umh / subme=10 / psy=1 / psy_rd=1.00:0.15 / mixed_ref=1 / me_range=32 / chroma_me=1 / trellis=2 / 8x8dct=1 / cqm=0 / deadzone=21,11 / fast_pskip=0 / chroma_qp_offset=-3 / threads=24 / lookahead_threads=6 / sliced_threads=0 / nr=0 / decimate=1 / interlaced=0 / bluray_compat=0 / constrained_intra=0 / bframes=10 / b_pyramid=2 / b_adapt=2 / b_bias=0 / direct=3 / weightb=1 / open_gop=0 / weightp=2 / keyint=250 / keyint_min=23 / scenecut=40 / intra_refresh=0 / rc_lookahead=60 / rc=crf / mbtree=0 / crf=21.5 / qcomp=0.60 / qpmin=0 / qpmax=69 / qpstep=4 / vbv_maxrate=62500 / vbv_bufsize=78125 / crf_max=0.0 / nal_hrd=none / filler=0 / ip_ratio=1.40 / pb_ratio=1.30 / aq=1:1.00
Language : English
Default : Yes
Forced : Yes
Color range : Limited
Matrix coefficients : BT.709
Audio
ID : 2
Format : AC-3
Format/Info : Audio Coding 3
Commercial name : Dolby Digital
Codec ID : A_AC3
Duration : 2 h 8 min
Bit rate mode : Constant
Bit rate : 384 kb/s
Channel(s) : 6 channels
Channel layout : L R C LFE Ls Rs
Sampling rate : 48.0 kHz
Frame rate : 31.250 FPS (1536 SPF)
Compression mode : Lossy
Stream size : 353 MiB (7%)
Title : Дубляж (iTunes)
Language : Russian
Service kind : Complete Main
Default : Yes
Forced : Yes
Menu
00:00:00.000 : en:1
00:09:25.398 : en:2
00:16:14.306 : en:3
00:24:21.625 : en:4
00:31:25.589 : en:5
00:35:54.065 : en:6
00:41:28.816 : en:7
00:44:54.812 : en:8
00:50:17.801 : en:9
00:54:22.170 : en:10
01:00:52.392 : en:11
01:07:13.064 : en:12
01:11:13.846 : en:13
01:17:38.730 : en:14
01:25:26.614 : en:15
01:33:31.389 : en:16
01:39:29.538 : en:17
01:47:59.255 : en:18
01:52:12.548 : en:19
01:58:34.513 : en:20

Сравнение с исходником:

https://screenshotcomparison.com/comparison/23854

Скриншоты:

[Цитировать]



Показать сообщения:    

Текущее время: 14-Июл 11:09

Часовой пояс: UTC + 6


Вы не можете начинать темы
Вы не можете отвечать на сообщения
Вы не можете редактировать свои сообщения
Вы не можете удалять свои сообщения
Вы не можете голосовать в опросах
Вы не можете прикреплять файлы к сообщениям
Вы не можете скачивать файлы

!ВНИМАНИЕ!
Сайт не предоставляет электронные версии произведений, а занимается лишь коллекционированием и каталогизацией ссылок, присылаемых и публикуемых на форуме нашими читателями. Если вы являетесь правообладателем какого-либо представленного материала и не желаете, чтобы ссылка на него находилась в нашем каталоге, свяжитесь с нами, и мы незамедлительно удалим ее. Файлы для обмена на трекере предоставлены пользователями сайта, и администрация не несет ответственности за их содержание. Просьба не заливать файлы, защищенные авторскими правами, а также файлы нелегального содержания!